  0
SECTION
  2
HEADER
  9
$ACADVER
  1
AC1024
  9
$ACADMAINTVER
 70
     6
  9
$DWGCODEPAGE
  3
ANSI_1250
  9
$INSBASE
 10
0.0
 20
0.0
 30
0.0
  9
$EXTMIN
 10
43.29663029012939
 20
0.1815196537840662
 30
0.0
  9
$EXTMAX
 10
843.913543
 20
789.168671
 30
0.0
  9
$LIMMIN
 10
-0.5
 20
-0.5
  9
$LIMMAX
 10
5.0
 20
5.0
  9
$ORTHOMODE
 70
     0
  9
$REGENMODE
 70
     1
  9
$FILLMODE
 70
     1
  9
$QTEXTMODE
 70
     0
  9
$MIRRTEXT
 70
     1
  9
$LTSCALE
 40
1.0
  9
$ATTMODE
 70
     1
  9
$TEXTSIZE
 40
0.2
  9
$TRACEWID
 40
0.05
  9
$TEXTSTYLE
  7
Standard
  9
$CLAYER
  8
0
  9
$CELTYPE
  6
ByLayer
  9
$CECOLOR
 62
   256
  9
$CELTSCALE
 40
1.0
  9
$DISPSILH
 70
     0
  9
$DIMSCALE
 40
1.0
  9
$DIMASZ
 40
0.18
  9
$DIMEXO
 40
0.0625
  9
$DIMDLI
 40
0.38
  9
$DIMRND
 40
0.0
  9
$DIMDLE
 40
0.0
  9
$DIMEXE
 40
0.18
  9
$DIMTP
 40
0.0
  9
$DIMTM
 40
0.0
  9
$DIMTXT
 40
0.18
  9
$DIMCEN
 40
0.09
  9
$DIMTSZ
 40
0.0
  9
$DIMTOL
 70
     0
  9
$DIMLIM
 70
     0
  9
$DIMTIH
 70
     1
  9
$DIMTOH
 70
     1
  9
$DIMSE1
 70
     0
  9
$DIMSE2
 70
     0
  9
$DIMTAD
 70
     0
  9
$DIMZIN
 70
     0
  9
$DIMBLK
  1

  9
$DIMASO
 70
     1
  9
$DIMSHO
 70
     1
  9
$DIMPOST
  1

  9
$DIMAPOST
  1

  9
$DIMALT
 70
     0
  9
$DIMALTD
 70
     2
  9
$DIMALTF
 40
25.4
  9
$DIMLFAC
 40
1.0
  9
$DIMTOFL
 70
     0
  9
$DIMTVP
 40
0.0
  9
$DIMTIX
 70
     0
  9
$DIMSOXD
 70
     0
  9
$DIMSAH
 70
     0
  9
$DIMBLK1
  1

  9
$DIMBLK2
  1

  9
$DIMSTYLE
  2
Standard
  9
$DIMCLRD
 70
     0
  9
$DIMCLRE
 70
     0
  9
$DIMCLRT
 70
     0
  9
$DIMTFAC
 40
1.0
  9
$DIMGAP
 40
0.09
  9
$DIMJUST
 70
     0
  9
$DIMSD1
 70
     0
  9
$DIMSD2
 70
     0
  9
$DIMTOLJ
 70
     1
  9
$DIMTZIN
 70
     0
  9
$DIMALTZ
 70
     0
  9
$DIMALTTZ
 70
     0
  9
$DIMUPT
 70
     0
  9
$DIMDEC
 70
     4
  9
$DIMTDEC
 70
     4
  9
$DIMALTU
 70
     2
  9
$DIMALTTD
 70
     2
  9
$DIMTXSTY
  7
Standard
  9
$DIMAUNIT
 70
     0
  9
$DIMADEC
 70
     0
  9
$DIMALTRND
 40
0.0
  9
$DIMAZIN
 70
     0
  9
$DIMDSEP
 70
    46
  9
$DIMATFIT
 70
     3
  9
$DIMFRAC
 70
     0
  9
$DIMLDRBLK
  1

  9
$DIMLUNIT
 70
     2
  9
$DIMLWD
 70
    -2
  9
$DIMLWE
 70
    -2
  9
$DIMTMOVE
 70
     0
  9
$DIMFXL
 40
1.0
  9
$DIMFXLON
 70
     0
  9
$DIMJOGANG
 40
0.7853981633974483
  9
$DIMTFILL
 70
     0
  9
$DIMTFILLCLR
 70
     0
  9
$DIMARCSYM
 70
     0
  9
$DIMLTYPE
  6

  9
$DIMLTEX1
  6

  9
$DIMLTEX2
  6

  9
$DIMTXTDIRECTION
 70
     0
  9
$LUNITS
 70
     2
  9
$LUPREC
 70
     4
  9
$SKETCHINC
 40
0.1
  9
$FILLETRAD
 40
0.5
  9
$AUNITS
 70
     0
  9
$AUPREC
 70
     0
  9
$MENU
  1
.
  9
$ELEVATION
 40
0.0
  9
$PELEVATION
 40
0.0
  9
$THICKNESS
 40
0.0
  9
$LIMCHECK
 70
     0
  9
$CHAMFERA
 40
0.0
  9
$CHAMFERB
 40
0.0
  9
$CHAMFERC
 40
0.0
  9
$CHAMFERD
 40
0.0
  9
$SKPOLY
 70
     0
  9
$TDCREATE
 40
2458102.674158553
  9
$TDUCREATE
 40
2458102.632491887
  9
$TDUPDATE
 40
2458102.674164386
  9
$TDUUPDATE
 40
2458102.63249772
  9
$TDINDWG
 40
0.0460043519
  9
$TDUSRTIMER
 40
0.0460043403
  9
$USRTIMER
 70
     1
  9
$ANGBASE
 50
0.0
  9
$ANGDIR
 70
     0
  9
$PDMODE
 70
     0
  9
$PDSIZE
 40
0.0
  9
$PLINEWID
 40
0.0
  9
$SPLFRAME
 70
     0
  9
$SPLINETYPE
 70
     6
  9
$SPLINESEGS
 70
     8
  9
$HANDSEED
  5
4A2
  9
$SURFTAB1
 70
     6
  9
$SURFTAB2
 70
     6
  9
$SURFTYPE
 70
     6
  9
$SURFU
 70
     6
  9
$SURFV
 70
     6
  9
$UCSBASE
  2

  9
$UCSNAME
  2

  9
$UCSORG
 10
0.0
 20
0.0
 30
0.0
  9
$UCSXDIR
 10
1.0
 20
0.0
 30
0.0
  9
$UCSYDIR
 10
0.0
 20
1.0
 30
0.0
  9
$UCSORTHOREF
  2

  9
$UCSORTHOVIEW
 70
     0
  9
$UCSORGTOP
 10
0.0
 20
0.0
 30
0.0
  9
$UCSORGBOTTOM
 10
0.0
 20
0.0
 30
0.0
  9
$UCSORGLEFT
 10
0.0
 20
0.0
 30
0.0
  9
$UCSORGRIGHT
 10
0.0
 20
0.0
 30
0.0
  9
$UCSORGFRONT
 10
0.0
 20
0.0
 30
0.0
  9
$UCSORGBACK
 10
0.0
 20
0.0
 30
0.0
  9
$PUCSBASE
  2

  9
$PUCSNAME
  2

  9
$PUCSORG
 10
0.0
 20
0.0
 30
0.0
  9
$PUCSXDIR
 10
1.0
 20
0.0
 30
0.0
  9
$PUCSYDIR
 10
0.0
 20
1.0
 30
0.0
  9
$PUCSORTHOREF
  2

  9
$PUCSORTHOVIEW
 70
     0
  9
$PUCSORGTOP
 10
0.0
 20
0.0
 30
0.0
  9
$PUCSORGBOTTOM
 10
0.0
 20
0.0
 30
0.0
  9
$PUCSORGLEFT
 10
0.0
 20
0.0
 30
0.0
  9
$PUCSORGRIGHT
 10
0.0
 20
0.0
 30
0.0
  9
$PUCSORGFRONT
 10
0.0
 20
0.0
 30
0.0
  9
$PUCSORGBACK
 10
0.0
 20
0.0
 30
0.0
  9
$USERI1
 70
     0
  9
$USERI2
 70
     0
  9
$USERI3
 70
     0
  9
$USERI4
 70
     0
  9
$USERI5
 70
     0
  9
$USERR1
 40
0.0
  9
$USERR2
 40
0.0
  9
$USERR3
 40
0.0
  9
$USERR4
 40
0.0
  9
$USERR5
 40
0.0
  9
$WORLDVIEW
 70
     1
  9
$SHADEDGE
 70
     3
  9
$SHADEDIF
 70
    70
  9
$TILEMODE
 70
     1
  9
$MAXACTVP
 70
    64
  9
$PINSBASE
 10
0.0
 20
0.0
 30
0.0
  9
$PLIMCHECK
 70
     0
  9
$PEXTMIN
 10
-0.5
 20
-0.5
 30
-0.5
  9
$PEXTMAX
 10
5.0
 20
5.0
 30
5.0
  9
$PLIMMIN
 10
-0.5
 20
-0.5
  9
$PLIMMAX
 10
5.0
 20
5.0
  9
$UNITMODE
 70
     0
  9
$VISRETAIN
 70
     1
  9
$PLINEGEN
 70
     0
  9
$PSLTSCALE
 70
     1
  9
$TREEDEPTH
 70
  3020
  9
$CMLSTYLE
  2
Standard
  9
$CMLJUST
 70
     0
  9
$CMLSCALE
 40
1.0
  9
$PROXYGRAPHICS
 70
     1
  9
$MEASUREMENT
 70
     1
  9
$CELWEIGHT
370
    70
  9
$ENDCAPS
280
     0
  9
$JOINSTYLE
280
     0
  9
$LWDISPLAY
290
     1
  9
$INSUNITS
 70
     4
  9
$HYPERLINKBASE
  1

  9
$STYLESHEET
  1

  9
$XEDIT
290
     1
  9
$CEPSNTYPE
380
     0
  9
$PSTYLEMODE
290
     1
  9
$FINGERPRINTGUID
  2
{A8A1276A-E265-4A2F-AB96-F2AED92ACA25}
  9
$VERSIONGUID
  2
{FAEB1C32-E019-11D5-929B-00C0DF256EC4}
  9
$EXTNAMES
290
     1
  9
$PSVPSCALE
 40
0.0
  9
$OLESTARTUP
290
     0
  9
$SORTENTS
280
   127
  9
$INDEXCTL
280
     0
  9
$HIDETEXT
280
     1
  9
$XCLIPFRAME
280
     2
  9
$HALOGAP
280
     0
  9
$OBSCOLOR
 70
   257
  9
$OBSLTYPE
280
     0
  9
$INTERSECTIONDISPLAY
280
     0
  9
$INTERSECTIONCOLOR
 70
   257
  9
$DIMASSOC
280
     2
  9
$PROJECTNAME
  1

  9
$CAMERADISPLAY
290
     0
  9
$LENSLENGTH
 40
50.0
  9
$CAMERAHEIGHT
 40
0.0
  9
$STEPSPERSEC
 40
2.0
  9
$STEPSIZE
 40
6.0
  9
$3DDWFPREC
 40
2.0
  9
$PSOLWIDTH
 40
0.25
  9
$PSOLHEIGHT
 40
4.0
  9
$LOFTANG1
 40
1.570796326794897
  9
$LOFTANG2
 40
1.570796326794897
  9
$LOFTMAG1
 40
0.0
  9
$LOFTMAG2
 40
0.0
  9
$LOFTPARAM
 70
     7
  9
$LOFTNORMALS
280
     1
  9
$LATITUDE
 40
37.795
  9
$LONGITUDE
 40
-122.394
  9
$NORTHDIRECTION
 40
0.0
  9
$TIMEZONE
 70
 -8000
  9
$LIGHTGLYPHDISPLAY
280
     1
  9
$TILEMODELIGHTSYNCH
280
     1
  9
$SOLIDHIST
280
     1
  9
$SHOWHIST
280
     1
  9
$DWFFRAME
280
     2
  9
$DGNFRAME
280
     2
  9
$REALWORLDSCALE
290
     1
  9
$INTERFERECOLOR
 62
   256
  9
$CSHADOW
280
     0
  9
$SHADOWPLANELOCATION
 40
0.0
  0
ENDSEC
  0
SECTION
  2
CLASSES
  0
CLASS
  1
ACDBDICTIONARYWDFLT
  2
AcDbDictionaryWithDefault
  3
ObjectDBX Classes
 90
        0
 91
        4
280
     0
281
     0
  0
CLASS
  1
VISUALSTYLE
  2
AcDbVisualStyle
  3
ObjectDBX Classes
 90
     4095
 91
        4
280
     0
281
     0
  0
CLASS
  1
MATERIAL
  2
AcDbMaterial
  3
ObjectDBX Classes
 90
     1153
 91
        4
280
     0
281
     0
  0
CLASS
  1
SCALE
  2
AcDbScale
  3
ObjectDBX Classes
 90
     1153
 91
        4
280
     0
281
     0
  0
CLASS
  1
TABLESTYLE
  2
AcDbTableStyle
  3
ObjectDBX Classes
 90
     4095
 91
        4
280
     0
281
     0
  0
CLASS
  1
MLEADERSTYLE
  2
AcDbMLeaderStyle
  3
ACDB_MLEADERSTYLE_CLASS
 90
     4095
 91
        4
280
     0
281
     0
  0
CLASS
  1
SUN
  2
AcDbSun
  3
SCENEOE
 90
     1024
 91
        4
280
     0
281
     0
  0
CLASS
  1
DIMASSOC
  2
AcDbDimAssoc
  3
"AcDbDimAssoc|Product Desc:     AcDim ARX App For Dimension|Company:          Autodesk, Inc.|WEB Address:      www.autodesk.com"
 90
        0
 91
        4
280
     0
281
     0
  0
CLASS
  1
DICTIONARYVAR
  2
AcDbDictionaryVar
  3
ObjectDBX Classes
 90
        0
 91
        4
280
     0
281
     0
  0
CLASS
  1
CELLSTYLEMAP
  2
AcDbCellStyleMap
  3
ObjectDBX Classes
 90
     1152
 91
        4
280
     0
281
     0
  0
ENDSEC
  0
SECTION
  2
TABLES
  0
TABLE
  2
VPORT
  5
8
330
0
100
AcDbSymbolTable
 70
    16
  0
VPORT
  5
29
330
8
100
AcDbSymbolTableRecord
100
AcDbViewportTableRecord
  2
*Active
 70
     0
 10
0.0
 20
0.0
 11
1.0
 21
1.0
 12
272.8375082692509
 22
604.8919669576284
 13
0.0
 23
0.0
 14
0.5
 24
0.5
 15
0.5
 25
0.5
 16
0.0
 26
0.0
 36
1.0
 17
0.0
 27
0.0
 37
0.0
 40
245.1471582612755
 41
2.124678663239074
 42
50.0
 43
1708.716233
 44
-1708.716233
 50
0.0
 51
0.0
 71
     0
 72
   100
 73
     1
 74
     3
 75
     0
 76
     0
 77
     0
 78
     0
281
     0
 65
     1
110
0.0
120
0.0
130
0.0
111
1.0
121
0.0
131
0.0
112
0.0
122
1.0
132
0.0
 79
     0
146
0.0
 60
     3
 61
     5
292
     1
282
     1
141
0.0
142
0.0
 63
   256
  0
VPORT
  5
2E1
330
8
100
AcDbSymbolTableRecord
100
AcDbViewportTableRecord
  2
L1
 70
     0
 10
0.0
 20
0.0
 11
1.0
 21
1.0
 12
544.188538
 22
396.885963
 13
0.0
 23
0.0
 14
0.5
 24
0.5
 15
0.5
 25
0.5
 16
0.0
 26
0.0
 36
1.0
 17
0.0
 27
0.0
 37
0.0
 40
254.0
 41
0.069908
 42
50.0
 43
1708.716233
 44
-1708.716233
 50
0.0
 51
0.0
 71
     0
 72
   100
 73
     1
 74
     3
 75
     0
 76
     0
 77
     0
 78
     0
281
     0
 65
     1
110
0.0
120
0.0
130
0.0
111
1.0
121
0.0
131
0.0
112
0.0
122
1.0
132
0.0
 79
     0
146
0.0
 60
     3
 61
     5
292
     1
282
     1
141
0.0
142
0.0
 63
   256
  0
VPORT
  5
2E2
330
8
100
AcDbSymbolTableRecord
100
AcDbViewportTableRecord
  2
L2
 70
     0
 10
0.0
 20
0.0
 11
0.5
 21
1.0
 12
0.0
 22
0.0
 13
0.0
 23
0.0
 14
0.5
 24
0.5
 15
0.5
 25
0.5
 16
0.0
 26
-1.0
 36
0.0
 17
0.0
 27
0.0
 37
0.0
 40
1319.822715
 41
0.013454
 42
50.0
 43
672.020833
 44
-672.020833
 50
0.0
 51
0.0
 71
     0
 72
   100
 73
     1
 74
     3
 75
     0
 76
     0
 77
     0
 78
     0
281
     0
 65
     1
110
0.0
120
0.0
130
0.0
111
1.0
121
0.0
131
0.0
112
0.0
122
1.0
132
0.0
 79
     0
146
0.0
 60
     3
 61
     5
292
     1
282
     1
141
0.0
142
0.0
 63
   256
  0
VPORT
  5
2E3
330
8
100
AcDbSymbolTableRecord
100
AcDbViewportTableRecord
  2
L2
 70
     0
 10
0.5
 20
0.0
 11
1.0
 21
1.0
 12
0.0
 22
0.0
 13
0.0
 23
0.0
 14
0.5
 24
0.5
 15
0.5
 25
0.5
 16
1.0
 26
0.0
 36
0.0
 17
0.0
 27
0.0
 37
0.0
 40
1319.822715
 41
0.013454
 42
50.0
 43
672.020833
 44
-672.020833
 50
0.0
 51
0.0
 71
     0
 72
   100
 73
     1
 74
     3
 75
     0
 76
     0
 77
     0
 78
     0
281
     0
 65
     1
110
0.0
120
0.0
130
0.0
111
1.0
121
0.0
131
0.0
112
0.0
122
1.0
132
0.0
 79
     0
146
0.0
 60
     3
 61
     5
292
     1
282
     1
141
0.0
142
0.0
 63
   256
  0
VPORT
  5
2E4
330
8
100
AcDbSymbolTableRecord
100
AcDbViewportTableRecord
  2
L3
 70
     0
 10
0.0
 20
0.5
 11
1.0
 21
1.0
 12
544.188538
 22
396.885963
 13
0.0
 23
0.0
 14
0.5
 24
0.5
 15
0.5
 25
0.5
 16
0.0
 26
0.0
 36
1.0
 17
0.0
 27
0.0
 37
0.0
 40
254.0
 41
0.069908
 42
50.0
 43
1708.716233
 44
-1708.716233
 50
0.0
 51
0.0
 71
     0
 72
   100
 73
     1
 74
     3
 75
     0
 76
     0
 77
     0
 78
     0
281
     0
 65
     1
110
0.0
120
0.0
130
0.0
111
1.0
121
0.0
131
0.0
112
0.0
122
1.0
132
0.0
 79
     0
146
0.0
 60
     3
 61
     5
292
     1
282
     1
141
0.0
142
0.0
 63
   256
  0
VPORT
  5
2E5
330
8
100
AcDbSymbolTableRecord
100
AcDbViewportTableRecord
  2
L3
 70
     0
 10
0.0
 20
0.0
 11
1.0
 21
0.5
 12
0.0
 22
0.0
 13
0.0
 23
0.0
 14
0.5
 24
0.5
 15
0.5
 25
0.5
 16
0.0
 26
-1.0
 36
0.0
 17
0.0
 27
0.0
 37
0.0
 40
1319.822715
 41
0.013454
 42
50.0
 43
672.020833
 44
-672.020833
 50
0.0
 51
0.0
 71
     0
 72
   100
 73
     1
 74
     3
 75
     0
 76
     0
 77
     0
 78
     0
281
     0
 65
     1
110
0.0
120
0.0
130
0.0
111
1.0
121
0.0
131
0.0
112
0.0
122
1.0
132
0.0
 79
     0
146
0.0
 60
     3
 61
     5
292
     1
282
     1
141
0.0
142
0.0
 63
   256
  0
VPORT
  5
2E6
330
8
100
AcDbSymbolTableRecord
100
AcDbViewportTableRecord
  2
L4
 70
     0
 10
0.0
 20
0.5
 11
0.5
 21
1.0
 12
544.188538
 22
396.885963
 13
0.0
 23
0.0
 14
0.5
 24
0.5
 15
0.5
 25
0.5
 16
0.0
 26
0.0
 36
1.0
 17
0.0
 27
0.0
 37
0.0
 40
254.0
 41
0.069908
 42
50.0
 43
1708.716233
 44
-1708.716233
 50
0.0
 51
0.0
 71
     0
 72
   100
 73
     1
 74
     3
 75
     0
 76
     0
 77
     0
 78
     0
281
     0
 65
     1
110
0.0
120
0.0
130
0.0
111
1.0
121
0.0
131
0.0
112
0.0
122
1.0
132
0.0
 79
     0
146
0.0
 60
     3
 61
     5
292
     1
282
     1
141
0.0
142
0.0
 63
   256
  0
VPORT
  5
2E7
330
8
100
AcDbSymbolTableRecord
100
AcDbViewportTableRecord
  2
L4
 70
     0
 10
0.0
 20
0.0
 11
0.5
 21
0.5
 12
0.0
 22
0.0
 13
0.0
 23
0.0
 14
0.5
 24
0.5
 15
0.5
 25
0.5
 16
0.0
 26
-1.0
 36
0.0
 17
0.0
 27
0.0
 37
0.0
 40
1319.822715
 41
0.013454
 42
50.0
 43
672.020833
 44
-672.020833
 50
0.0
 51
0.0
 71
     0
 72
   100
 73
     1
 74
     3
 75
     0
 76
     0
 77
     0
 78
     0
281
     0
 65
     1
110
0.0
120
0.0
130
0.0
111
1.0
121
0.0
131
0.0
112
0.0
122
1.0
132
0.0
 79
     0
146
0.0
 60
     3
 61
     5
292
     1
282
     1
141
0.0
142
0.0
 63
   256
  0
VPORT
  5
2E8
330
8
100
AcDbSymbolTableRecord
100
AcDbViewportTableRecord
  2
L4
 70
     0
 10
0.5
 20
0.0
 11
1.0
 21
0.5
 12
0.0
 22
0.0
 13
0.0
 23
0.0
 14
0.5
 24
0.5
 15
0.5
 25
0.5
 16
1.0
 26
0.0
 36
0.0
 17
0.0
 27
0.0
 37
0.0
 40
1319.822715
 41
0.013454
 42
50.0
 43
672.020833
 44
-672.020833
 50
0.0
 51
0.0
 71
     0
 72
   100
 73
     1
 74
     3
 75
     0
 76
     0
 77
     0
 78
     0
281
     0
 65
     1
110
0.0
120
0.0
130
0.0
111
1.0
121
0.0
131
0.0
112
0.0
122
1.0
132
0.0
 79
     0
146
0.0
 60
     3
 61
     5
292
     1
282
     1
141
0.0
142
0.0
 63
   256
  0
VPORT
  5
2E9
330
8
100
AcDbSymbolTableRecord
100
AcDbViewportTableRecord
  2
L4
 70
     0
 10
0.5
 20
0.5
 11
1.0
 21
1.0
 12
0.0
 22
0.0
 13
0.0
 23
0.0
 14
0.5
 24
0.5
 15
0.5
 25
0.5
 16
0.5773502691896258
 26
-0.5773502691896258
 36
0.5773502691896258
 17
0.0
 27
0.0
 37
0.0
 40
1285.020866
 41
0.013818
 42
50.0
 43
667.141407
 44
-667.141407
 50
0.0
 51
0.0
 71
     0
 72
   100
 73
     1
 74
     3
 75
     0
 76
     0
 77
     0
 78
     0
281
     0
 65
     1
110
0.0
120
0.0
130
0.0
111
1.0
121
0.0
131
0.0
112
0.0
122
1.0
132
0.0
 79
     0
146
0.0
 60
     3
 61
     5
292
     1
282
     1
141
0.0
142
0.0
 63
   256
  0
VPORT
  5
2EA
330
8
100
AcDbSymbolTableRecord
100
AcDbViewportTableRecord
  2
L6
 70
     0
 10
0.0
 20
0.5
 11
0.333333
 21
1.0
 12
0.0
 22
0.0
 13
0.0
 23
0.0
 14
0.5
 24
0.5
 15
0.5
 25
0.5
 16
0.7188730927569433
 26
-0.5850486126764433
 36
0.3754192287502549
 17
0.0
 27
0.0
 37
0.0
 40
1357.434192
 41
0.013081
 42
50.0
 43
701.839477
 44
-701.839477
 50
0.0
 51
0.0
 71
     0
 72
   100
 73
     1
 74
     3
 75
     0
 76
     0
 77
     0
 78
     0
281
     0
 65
     1
110
0.0
120
0.0
130
0.0
111
1.0
121
0.0
131
0.0
112
0.0
122
1.0
132
0.0
 79
     0
146
0.0
 60
     3
 61
     5
292
     1
282
     1
141
0.0
142
0.0
 63
   256
  0
VPORT
  5
2EB
330
8
100
AcDbSymbolTableRecord
100
AcDbViewportTableRecord
  2
L6
 70
     0
 10
0.0
 20
0.0
 11
0.333333
 21
0.5
 12
0.0
 22
0.0
 13
0.0
 23
0.0
 14
0.5
 24
0.5
 15
0.5
 25
0.5
 16
-1.0
 26
0.0
 36
0.0
 17
0.0
 27
0.0
 37
0.0
 40
1319.822715
 41
0.013454
 42
50.0
 43
672.020833
 44
-672.020833
 50
0.0
 51
0.0
 71
     0
 72
   100
 73
     1
 74
     3
 75
     0
 76
     0
 77
     0
 78
     0
281
     0
 65
     1
110
0.0
120
0.0
130
0.0
111
1.0
121
0.0
131
0.0
112
0.0
122
1.0
132
0.0
 79
     0
146
0.0
 60
     3
 61
     5
292
     1
282
     1
141
0.0
142
0.0
 63
   256
  0
VPORT
  5
2EC
330
8
100
AcDbSymbolTableRecord
100
AcDbViewportTableRecord
  2
L6
 70
     0
 10
0.333333
 20
0.5
 11
0.666667
 21
1.0
 12
544.188538
 22
396.885963
 13
0.0
 23
0.0
 14
0.5
 24
0.5
 15
0.5
 25
0.5
 16
0.0
 26
0.0
 36
1.0
 17
0.0
 27
0.0
 37
0.0
 40
254.0
 41
0.069908
 42
50.0
 43
1708.716233
 44
-1708.716233
 50
0.0
 51
0.0
 71
     0
 72
   100
 73
     1
 74
     3
 75
     0
 76
     0
 77
     0
 78
     0
281
     0
 65
     1
110
0.0
120
0.0
130
0.0
111
1.0
121
0.0
131
0.0
112
0.0
122
1.0
132
0.0
 79
     0
146
0.0
 60
     3
 61
     5
292
     1
282
     1
141
0.0
142
0.0
 63
   256
  0
VPORT
  5
2ED
330
8
100
AcDbSymbolTableRecord
100
AcDbViewportTableRecord
  2
L6
 70
     0
 10
0.333333
 20
0.0
 11
0.666667
 21
0.5
 12
0.0
 22
0.0
 13
0.0
 23
0.0
 14
0.5
 24
0.5
 15
0.5
 25
0.5
 16
0.0
 26
-1.0
 36
0.0
 17
0.0
 27
0.0
 37
0.0
 40
1319.822715
 41
0.013454
 42
50.0
 43
672.020833
 44
-672.020833
 50
0.0
 51
0.0
 71
     0
 72
   100
 73
     1
 74
     3
 75
     0
 76
     0
 77
     0
 78
     0
281
     0
 65
     1
110
0.0
120
0.0
130
0.0
111
1.0
121
0.0
131
0.0
112
0.0
122
1.0
132
0.0
 79
     0
146
0.0
 60
     3
 61
     5
292
     1
282
     1
141
0.0
142
0.0
 63
   256
  0
VPORT
  5
2EE
330
8
100
AcDbSymbolTableRecord
100
AcDbViewportTableRecord
  2
L6
 70
     0
 10
0.666667
 20
0.5
 11
1.0
 21
1.0
 12
0.0
 22
0.0
 13
0.0
 23
0.0
 14
0.5
 24
0.5
 15
0.5
 25
0.5
 16
0.5773502691896258
 26
-0.5773502691896258
 36
0.5773502691896258
 17
0.0
 27
0.0
 37
0.0
 40
1285.020866
 41
0.013818
 42
50.0
 43
667.141407
 44
-667.141407
 50
0.0
 51
0.0
 71
     0
 72
   100
 73
     1
 74
     3
 75
     0
 76
     0
 77
     0
 78
     0
281
     0
 65
     1
110
0.0
120
0.0
130
0.0
111
1.0
121
0.0
131
0.0
112
0.0
122
1.0
132
0.0
 79
     0
146
0.0
 60
     3
 61
     5
292
     1
282
     1
141
0.0
142
0.0
 63
   256
  0
VPORT
  5
2EF
330
8
100
AcDbSymbolTableRecord
100
AcDbViewportTableRecord
  2
L6
 70
     0
 10
0.666667
 20
0.0
 11
1.0
 21
0.5
 12
0.0
 22
0.0
 13
0.0
 23
0.0
 14
0.5
 24
0.5
 15
0.5
 25
0.5
 16
1.0
 26
0.0
 36
0.0
 17
0.0
 27
0.0
 37
0.0
 40
1319.822715
 41
0.013454
 42
50.0
 43
672.020833
 44
-672.020833
 50
0.0
 51
0.0
 71
     0
 72
   100
 73
     1
 74
     3
 75
     0
 76
     0
 77
     0
 78
     0
281
     0
 65
     1
110
0.0
120
0.0
130
0.0
111
1.0
121
0.0
131
0.0
112
0.0
122
1.0
132
0.0
 79
     0
146
0.0
 60
     3
 61
     5
292
     1
282
     1
141
0.0
142
0.0
 63
   256
  0
ENDTAB
  0
TABLE
  2
LTYPE
  5
5
330
0
100
AcDbSymbolTable
 70
     6
  0
LTYPE
  5
14
330
5
100
AcDbSymbolTableRecord
100
AcDbLinetypeTableRecord
  2
ByBlock
 70
     0
  3

 72
    65
 73
     0
 40
0.0
  0
LTYPE
  5
15
330
5
100
AcDbSymbolTableRecord
100
AcDbLinetypeTableRecord
  2
ByLayer
 70
     0
  3

 72
    65
 73
     0
 40
0.0
  0
LTYPE
  5
16
330
5
100
AcDbSymbolTableRecord
100
AcDbLinetypeTableRecord
  2
Continuous
 70
     0
  3
Solid line
 72
    65
 73
     0
 40
0.0
  0
LTYPE
  5
6E
330
5
100
AcDbSymbolTableRecord
100
AcDbLinetypeTableRecord
  2
CENTER
 70
     0
  3
____ _ ____ _ ____ _ ____
 72
    65
 73
     4
 40
47.4
 49
22.0
 74
     4
 75
     0
340
0
 46
0.0
 50
0.0
 44
0.0
 45
0.0
 49
-8.5
 74
     4
 75
     0
340
0
 46
0.0
 50
0.0
 44
0.0
 45
0.0
 49
8.5
 74
     4
 75
     0
340
0
 46
0.0
 50
0.0
 44
0.0
 45
0.0
 49
-8.5
 74
     4
 75
     0
340
0
 46
0.0
 50
0.0
 44
0.0
 45
0.0
  0
LTYPE
  5
6F
330
5
100
AcDbSymbolTableRecord
100
AcDbLinetypeTableRecord
  2
DASHDOT
 70
     0
  3
_._._._._._._._._._._._._._._._.
 72
    65
 73
     4
 40
70.0
 49
31.0
 74
     4
 75
     0
340
0
 46
0.0
 50
0.0
 44
0.0
 45
0.0
 49
-13.0
 74
     4
 75
     0
340
0
 46
0.0
 50
0.0
 44
0.0
 45
0.0
 49
13.0
 74
     4
 75
     0
340
0
 46
0.0
 50
0.0
 44
0.0
 45
0.0
 49
-13.0
 74
     4
 75
     0
340
0
 46
0.0
 50
0.0
 44
0.0
 45
0.0
  0
LTYPE
  5
70
330
5
100
AcDbSymbolTableRecord
100
AcDbLinetypeTableRecord
  2
DASHED
 70
     0
  3
__ __ __ __ __ __ __ __ __
 72
    65
 73
     2
 40
25.72
 49
12.86
 74
     4
 75
     0
340
0
 46
0.0
 50
0.0
 44
0.0
 45
0.0
 49
-12.86
 74
     4
 75
     0
340
0
 46
0.0
 50
0.0
 44
0.0
 45
0.0
  0
LTYPE
  5
71
330
5
100
AcDbSymbolTableRecord
100
AcDbLinetypeTableRecord
  2
DOT
 70
     0
  3
.........................
 72
    65
 73
     2
 40
10.0
 49
0.0
 74
     4
 75
     0
340
0
 46
0.0
 50
0.0
 44
0.0
 45
0.0
 49
-10.0
 74
     4
 75
     0
340
0
 46
0.0
 50
0.0
 44
0.0
 45
0.0
  0
LTYPE
  5
72
330
5
100
AcDbSymbolTableRecord
100
AcDbLinetypeTableRecord
  2
PHANTOM
 70
     0
  3
____ _ _ ____ _ _ _____ _ _ ____
 72
    65
 73
     6
 40
50.5
 49
18.0
 74
     4
 75
     0
340
0
 46
0.0
 50
0.0
 44
0.0
 45
0.0
 49
-6.5
 74
     4
 75
     0
340
0
 46
0.0
 50
0.0
 44
0.0
 45
0.0
 49
6.5
 74
     4
 75
     0
340
0
 46
0.0
 50
0.0
 44
0.0
 45
0.0
 49
-6.5
 74
     4
 75
     0
340
0
 46
0.0
 50
0.0
 44
0.0
 45
0.0
 49
6.5
 74
     4
 75
     0
340
0
 46
0.0
 50
0.0
 44
0.0
 45
0.0
 49
-6.5
 74
     4
 75
     0
340
0
 46
0.0
 50
0.0
 44
0.0
 45
0.0
  0
ENDTAB
  0
TABLE
  2
LAYER
  5
2
330
0
100
AcDbSymbolTable
 70
     3
  0
LAYER
  5
10
330
2
100
AcDbSymbolTableRecord
100
AcDbLayerTableRecord
  2
0
 70
     0
 62
     7
  6
Continuous
370
    -3
390
F
347
46
  0
LAYER
  5
74
330
2
100
AcDbSymbolTableRecord
100
AcDbLayerTableRecord
  2
1
 70
     0
 62
     7
420
 16777215
  6
Continuous
370
    -3
390
F
347
46
  0
LAYER
  5
252
330
2
100
AcDbSymbolTableRecord
100
AcDbLayerTableRecord
  2
Defpoints
 70
     0
 62
     7
  6
Continuous
290
     0
370
    -3
390
F
347
46
  0
ENDTAB
  0
TABLE
  2
STYLE
  5
3
330
0
100
AcDbSymbolTable
 70
     2
  0
STYLE
  5
11
330
3
100
AcDbSymbolTableRecord
100
AcDbTextStyleTableRecord
  2
Standard
 70
     0
 40
0.0
 41
1.0
 50
0.0
 71
     0
 42
0.2
  3
txt
  4

  0
STYLE
  5
24F
330
3
100
AcDbSymbolTableRecord
100
AcDbTextStyleTableRecord
  2
Tahoma
 70
     0
 40
0.0
 41
1.0
 50
0.0
 71
     0
 42
0.2
  3
tahoma.ttf
  4

1001
ACAD
1000
Tahoma
1071
        0
  0
ENDTAB
  0
TABLE
  2
VIEW
  5
6
330
0
100
AcDbSymbolTable
 70
     0
  0
ENDTAB
  0
TABLE
  2
UCS
  5
7
330
0
100
AcDbSymbolTable
 70
     0
  0
ENDTAB
  0
TABLE
  2
APPID
  5
9
330
0
100
AcDbSymbolTable
 70
     6
  0
APPID
  5
12
330
9
100
AcDbSymbolTableRecord
100
AcDbRegAppTableRecord
  2
ACAD
 70
     0
  0
APPID
  5
24D
330
9
100
AcDbSymbolTableRecord
100
AcDbRegAppTableRecord
  2
ACAD_DSTYLE_DIMBREAK
 70
     0
  0
APPID
  5
2F0
330
9
100
AcDbSymbolTableRecord
100
AcDbRegAppTableRecord
  2
ACAD_DSTYLE_DIM_LINETYPE
 70
     0
  0
APPID
  5
2F1
330
9
100
AcDbSymbolTableRecord
100
AcDbRegAppTableRecord
  2
ACAD_DSTYLE_DIM_EXT1_LINETYPE
 70
     0
  0
APPID
  5
2F2
330
9
100
AcDbSymbolTableRecord
100
AcDbRegAppTableRecord
  2
ACAD_DSTYLE_DIM_EXT2_LINETYPE
 70
     0
  0
APPID
  5
332
330
9
100
AcDbSymbolTableRecord
100
AcDbRegAppTableRecord
  2
ACAD_MLEADERVER
 70
     0
  0
ENDTAB
  0
TABLE
  2
DIMSTYLE
  5
A
330
0
100
AcDbSymbolTable
 70
     1
100
AcDbDimStyleTable
  0
DIMSTYLE
105
27
102
{ACAD_REACTORS
330
3AA
330
3C6
330
3DE
330
48D
102
}
330
A
100
AcDbSymbolTableRecord
100
AcDbDimStyleTableRecord
  2
Standard
 70
     0
340
11
1001
ACAD_DSTYLE_DIMBREAK
1070
   391
1040
6.35
  0
ENDTAB
  0
TABLE
  2
BLOCK_RECORD
  5
1
330
0
100
AcDbSymbolTable
 70
    21
  0
BLOCK_RECORD
  5
1F
330
1
100
AcDbSymbolTableRecord
100
AcDbBlockTableRecord
  2
*Model_Space
340
22
 70
     0
280
     1
281
     0
  0
BLOCK_RECORD
  5
1B
330
1
100
AcDbSymbolTableRecord
100
AcDbBlockTableRecord
  2
*Paper_Space
340
1E
 70
     0
280
     1
281
     0
  0
BLOCK_RECORD
  5
23
330
1
100
AcDbSymbolTableRecord
100
AcDbBlockTableRecord
  2
*Paper_Space0
340
26
 70
     0
280
     1
281
     0
  0
BLOCK_RECORD
  5
253
330
1
100
AcDbSymbolTableRecord
100
AcDbBlockTableRecord
  2
*D1
340
0
 70
     0
280
     1
281
     0
  0
BLOCK_RECORD
  5
25F
330
1
100
AcDbSymbolTableRecord
100
AcDbBlockTableRecord
  2
_U0
340
0
 70
     0
280
     1
281
     0
  0
BLOCK_RECORD
  5
26B
330
1
100
AcDbSymbolTableRecord
100
AcDbBlockTableRecord
  2
*D3
340
0
 70
     0
280
     1
281
     0
  0
BLOCK_RECORD
  5
277
330
1
100
AcDbSymbolTableRecord
100
AcDbBlockTableRecord
  2
_U1
340
0
 70
     0
280
     1
281
     0
  0
BLOCK_RECORD
  5
283
330
1
100
AcDbSymbolTableRecord
100
AcDbBlockTableRecord
  2
*D5
340
0
 70
     0
280
     1
281
     0
  0
BLOCK_RECORD
  5
291
330
1
100
AcDbSymbolTableRecord
100
AcDbBlockTableRecord
  2
_U2
340
0
 70
     0
280
     1
281
     0
  0
BLOCK_RECORD
  5
29B
330
1
100
AcDbSymbolTableRecord
100
AcDbBlockTableRecord
  2
*D7
340
0
 70
     0
280
     1
281
     0
  0
BLOCK_RECORD
  5
2A8
330
1
100
AcDbSymbolTableRecord
100
AcDbBlockTableRecord
  2
_U3
340
0
 70
     0
280
     1
281
     0
  0
BLOCK_RECORD
  5
2B2
330
1
100
AcDbSymbolTableRecord
100
AcDbBlockTableRecord
  2
*D9
340
0
 70
     0
280
     1
281
     0
  0
BLOCK_RECORD
  5
2C0
330
1
100
AcDbSymbolTableRecord
100
AcDbBlockTableRecord
  2
_U4
340
0
 70
     0
280
     1
281
     0
  0
BLOCK_RECORD
  5
2CC
330
1
100
AcDbSymbolTableRecord
100
AcDbBlockTableRecord
  2
*D11
340
0
 70
     0
280
     1
281
     0
  0
BLOCK_RECORD
  5
2D9
330
1
100
AcDbSymbolTableRecord
100
AcDbBlockTableRecord
  2
_U5
340
0
 70
     0
280
     1
281
     0
  0
BLOCK_RECORD
  5
364
330
1
100
AcDbSymbolTableRecord
100
AcDbBlockTableRecord
  2
*D13
340
0
 70
     0
280
     1
281
     0
  0
BLOCK_RECORD
  5
387
330
1
100
AcDbSymbolTableRecord
100
AcDbBlockTableRecord
  2
*D14
340
0
 70
     0
280
     1
281
     0
  0
BLOCK_RECORD
  5
3AB
330
1
100
AcDbSymbolTableRecord
100
AcDbBlockTableRecord
  2
*D15
340
0
 70
     0
280
     1
281
     0
  0
BLOCK_RECORD
  5
3C7
330
1
100
AcDbSymbolTableRecord
100
AcDbBlockTableRecord
  2
*D16
340
0
 70
     0
280
     1
281
     0
  0
BLOCK_RECORD
  5
3DF
330
1
100
AcDbSymbolTableRecord
100
AcDbBlockTableRecord
  2
*D17
340
0
 70
     0
280
     1
281
     0
  0
BLOCK_RECORD
  5
46B
330
1
100
AcDbSymbolTableRecord
100
AcDbBlockTableRecord
  2
*D18
340
0
 70
     0
280
     1
281
     0
  0
BLOCK_RECORD
  5
47D
330
1
100
AcDbSymbolTableRecord
100
AcDbBlockTableRecord
  2
*D19
340
0
 70
     0
280
     1
281
     0
  0
BLOCK_RECORD
  5
48E
330
1
100
AcDbSymbolTableRecord
100
AcDbBlockTableRecord
  2
*D20
340
0
 70
     0
280
     1
281
     0
  0
ENDTAB
  0
ENDSEC
  0
SECTION
  2
BLOCKS
  0
BLOCK
  5
20
330
1F
100
AcDbEntity
  8
0
100
AcDbBlockBegin
  2
*Model_Space
 70
     0
 10
0.0
 20
0.0
 30
0.0
  3
*Model_Space
  1

  0
ENDBLK
  5
21
330
1F
100
AcDbEntity
  8
0
100
AcDbBlockEnd
  0
BLOCK
  5
1C
330
1B
100
AcDbEntity
 67
     1
  8
0
100
AcDbBlockBegin
  2
*Paper_Space
 70
     0
 10
0.0
 20
0.0
 30
0.0
  3
*Paper_Space
  1

  0
ENDBLK
  5
1D
330
1B
100
AcDbEntity
 67
     1
  8
0
100
AcDbBlockEnd
  0
BLOCK
  5
24
330
23
100
AcDbEntity
  8
0
100
AcDbBlockBegin
  2
*Paper_Space0
 70
     0
 10
0.0
 20
0.0
 30
0.0
  3
*Paper_Space0
  1

  0
ENDBLK
  5
25
330
23
100
AcDbEntity
  8
0
100
AcDbBlockEnd
  0
BLOCK
  5
254
330
253
100
AcDbEntity
  8
0
100
AcDbBlockBegin
  2
*D1
 70
     1
 10
0.0
 20
0.0
 30
0.0
  3
*D1
  1

  0
LINE
  5
256
330
253
100
AcDbEntity
  8
0
 62
    18
370
    -2
100
AcDbLine
 10
837.563543
 20
37.603409
 30
0.0
 11
959.563543
 21
37.603409
 31
0.0
  0
LINE
  5
257
330
253
100
AcDbEntity
  8
0
 62
    18
370
    -2
100
AcDbLine
 10
837.563543
 20
692.603409
 30
0.0
 11
959.563543
 21
692.603409
 31
0.0
  0
LINE
  5
258
330
253
100
AcDbEntity
  8
0
 62
    18
370
    -2
100
AcDbLine
 10
957.563543
 20
41.103409
 30
0.0
 11
957.563543
 21
689.103409
 31
0.0
  0
SOLID
  5
259
330
253
100
AcDbEntity
  8
0
 62
    18
100
AcDbTrace
 10
956.98021
 20
41.103409
 30
0.0
 11
958.146876
 21
41.103409
 31
0.0
 12
957.563543
 22
37.603409
 32
0.0
 13
957.563543
 23
37.603409
 33
0.0
  0
SOLID
  5
25A
330
253
100
AcDbEntity
  8
0
 62
    18
100
AcDbTrace
 10
958.146876
 20
689.103409
 30
0.0
 11
956.98021
 21
689.103409
 31
0.0
 12
957.563543
 22
692.603409
 32
0.0
 13
957.563543
 23
692.603409
 33
0.0
  0
MTEXT
  5
25B
330
253
100
AcDbEntity
  8
0
 62
    18
370
    70
100
AcDbMText
 10
950.493543
 20
365.103409
 30
0.0
 40
3.5
 41
0.0
 46
0.0
 71
     5
 72
     1
  1
\A1;655
  7
Tahoma
 11
0.0
 21
1.0
 31
0.0
 73
     1
 44
1.0
1001
ACAD
1000
ACAD_MTEXT_DEFINED_HEIGHT_BEGIN
1070
    46
1040
0.0
1000
ACAD_MTEXT_DEFINED_HEIGHT_END
  0
POINT
  5
25C
330
253
100
AcDbEntity
  8
Defpoints
 62
     0
100
AcDbPoint
 10
837.563543
 20
37.603409
 30
0.0
  0
POINT
  5
25D
330
253
100
AcDbEntity
  8
Defpoints
 62
     0
100
AcDbPoint
 10
837.563543
 20
692.603409
 30
0.0
  0
POINT
  5
25E
330
253
100
AcDbEntity
  8
Defpoints
 62
     0
100
AcDbPoint
 10
957.563543
 20
692.603409
 30
0.0
  0
ENDBLK
  5
255
330
253
100
AcDbEntity
  8
0
100
AcDbBlockEnd
  0
BLOCK
  5
266
330
25F
100
AcDbEntity
  8
0
100
AcDbBlockBegin
  2
_U0
 70
     0
 10
0.0
 20
0.0
 30
0.0
  3
_U0
  1

  0
LINE
  5
260
330
25F
100
AcDbEntity
  8
1
  6
Continuous
 62
    18
370
    35
100
AcDbLine
 10
837.563543
 20
37.603409
 30
0.0
 11
959.563543
 21
37.60340899999998
 31
0.0
  0
LINE
  5
261
330
25F
100
AcDbEntity
  8
1
  6
Continuous
 62
    18
370
    35
100
AcDbLine
 10
837.563543
 20
692.603409
 30
0.0
 11
959.5635430000001
 21
692.603409
 31
0.0
  0
LINE
  5
262
330
25F
100
AcDbEntity
  8
1
  6
Continuous
 62
    18
370
    35
100
AcDbLine
 10
957.563543
 20
41.10340899999998
 30
0.0
 11
957.5635430000001
 21
689.103409
 31
0.0
  0
SOLID
  5
263
330
25F
100
AcDbEntity
  8
1
  6
ByBlock
 62
    18
370
    35
100
AcDbTrace
 10
958.1468763333334
 20
41.10340899999998
 30
0.0
 11
956.9802096666667
 21
41.10340899999998
 31
0.0
 12
957.563543
 22
37.60340899999998
 32
0.0
 13
957.563543
 23
37.60340899999998
 33
0.0
  0
SOLID
  5
264
330
25F
100
AcDbEntity
  8
1
  6
ByBlock
 62
    18
370
    35
100
AcDbTrace
 10
956.9802096666667
 20
689.103409
 30
0.0
 11
958.1468763333334
 21
689.103409
 31
0.0
 12
957.5635430000001
 22
692.603409
 32
0.0
 13
957.5635430000001
 23
692.603409
 33
0.0
  0
MTEXT
  5
265
330
25F
100
AcDbEntity
  8
1
  6
ByBlock
 62
    18
370
    -2
100
AcDbMText
 10
953.9942011598388
 20
365.103409
 30
0.0
 40
3.5
 41
0.0
 46
0.0
 71
     5
 72
     1
  1
\A1;655
  7
Tahoma
 11
6.123233995736766E-17
 21
1.0
 31
0.0
 73
     1
 44
1.0
1001
ACAD
1000
ACAD_MTEXT_DEFINED_HEIGHT_BEGIN
1070
    46
1040
0.0
1000
ACAD_MTEXT_DEFINED_HEIGHT_END
  0
POINT
  5
357
330
25F
100
AcDbEntity
  8
Defpoints
  6
ByBlock
 62
     0
370
    -3
100
AcDbPoint
 10
837.563543
 20
37.603409
 30
0.0
  0
POINT
  5
358
330
25F
100
AcDbEntity
  8
Defpoints
  6
ByBlock
 62
     0
370
    -3
100
AcDbPoint
 10
837.563543
 20
692.603409
 30
0.0
  0
POINT
  5
359
330
25F
100
AcDbEntity
  8
Defpoints
  6
ByBlock
 62
     0
370
    -3
100
AcDbPoint
 10
957.5635430000001
 20
692.603409
 30
0.0
  0
ENDBLK
  5
267
330
25F
100
AcDbEntity
  8
0
100
AcDbBlockEnd
  0
BLOCK
  5
26C
330
26B
100
AcDbEntity
  8
0
100
AcDbBlockBegin
  2
*D3
 70
     1
 10
0.0
 20
0.0
 30
0.0
  3
*D3
  1

  0
LINE
  5
26E
330
26B
100
AcDbEntity
  8
0
 62
    18
370
    -2
100
AcDbLine
 10
837.563543
 20
55.114252
 30
0.0
 11
837.563543
 21
4.603256
 31
0.0
  0
LINE
  5
26F
330
26B
100
AcDbEntity
  8
0
 62
    18
370
    -2
100
AcDbLine
 10
137.563543
 20
37.603409
 30
0.0
 11
137.563543
 21
4.603256
 31
0.0
  0
LINE
  5
270
330
26B
100
AcDbEntity
  8
0
 62
    18
370
    -2
100
AcDbLine
 10
834.063543
 20
6.603256
 30
0.0
 11
141.063543
 21
6.603256
 31
0.0
  0
SOLID
  5
271
330
26B
100
AcDbEntity
  8
0
 62
    18
100
AcDbTrace
 10
834.063543
 20
6.019922
 30
0.0
 11
834.063543
 21
7.186589
 31
0.0
 12
837.563543
 22
6.603256
 32
0.0
 13
837.563543
 23
6.603256
 33
0.0
  0
SOLID
  5
272
330
26B
100
AcDbEntity
  8
0
 62
    18
100
AcDbTrace
 10
141.063543
 20
7.186589
 30
0.0
 11
141.063543
 21
6.019922
 31
0.0
 12
137.563543
 22
6.603256
 32
0.0
 13
137.563543
 23
6.603256
 33
0.0
  0
MTEXT
  5
273
330
26B
100
AcDbEntity
  8
0
 62
    18
370
    70
100
AcDbMText
 10
262.063609
 20
13.676756
 30
0.0
 40
3.5
 41
0.0
 46
0.0
 71
     5
 72
     1
  1
\A1;700
  7
Tahoma
 73
     1
 44
1.0
1001
ACAD
1000
ACAD_MTEXT_DEFINED_HEIGHT_BEGIN
1070
    46
1040
0.0
1000
ACAD_MTEXT_DEFINED_HEIGHT_END
  0
POINT
  5
274
330
26B
100
AcDbEntity
  8
Defpoints
 62
     0
100
AcDbPoint
 10
837.563543
 20
55.114252
 30
0.0
  0
POINT
  5
275
330
26B
100
AcDbEntity
  8
Defpoints
 62
     0
100
AcDbPoint
 10
137.563543
 20
37.603409
 30
0.0
  0
POINT
  5
276
330
26B
100
AcDbEntity
  8
Defpoints
 62
     0
100
AcDbPoint
 10
137.563543
 20
6.603256
 30
0.0
  0
ENDBLK
  5
26D
330
26B
100
AcDbEntity
  8
0
100
AcDbBlockEnd
  0
BLOCK
  5
27E
330
277
100
AcDbEntity
  8
0
100
AcDbBlockBegin
  2
_U1
 70
     0
 10
0.0
 20
0.0
 30
0.0
  3
_U1
  1

  0
LINE
  5
278
330
277
100
AcDbEntity
  8
1
  6
Continuous
 62
    18
370
    35
100
AcDbLine
 10
837.563543
 20
55.114252
 30
0.0
 11
837.563543
 21
4.60325599999993
 31
0.0
  0
LINE
  5
279
330
277
100
AcDbEntity
  8
1
  6
Continuous
 62
    18
370
    35
100
AcDbLine
 10
137.563543
 20
37.603409
 30
0.0
 11
137.563543
 21
4.603256000000015
 31
0.0
  0
LINE
  5
27A
330
277
100
AcDbEntity
  8
1
  6
Continuous
 62
    18
370
    35
100
AcDbLine
 10
834.063543
 20
6.60325599999993
 30
0.0
 11
141.063543
 21
6.603256000000015
 31
0.0
  0
SOLID
  5
27B
330
277
100
AcDbEntity
  8
1
  6
ByBlock
 62
    18
370
    35
100
AcDbTrace
 10
834.063543
 20
7.186589333333263
 30
0.0
 11
834.063543
 21
6.019922666666596
 31
0.0
 12
837.563543
 22
6.60325599999993
 32
0.0
 13
837.563543
 23
6.60325599999993
 33
0.0
  0
SOLID
  5
27C
330
277
100
AcDbEntity
  8
1
  6
ByBlock
 62
    18
370
    35
100
AcDbTrace
 10
141.063543
 20
6.019922666666682
 30
0.0
 11
141.063543
 21
7.186589333333349
 31
0.0
 12
137.563543
 22
6.603256000000015
 32
0.0
 13
137.563543
 23
6.603256000000015
 33
0.0
  0
MTEXT
  5
27D
330
277
100
AcDbEntity
  8
1
  6
ByBlock
 62
    18
370
    -2
100
AcDbMText
 10
262.063609
 20
10.1749484110141
 30
0.0
 40
3.5
 41
0.0
 46
0.0
 71
     5
 72
     1
  1
\A1;700
  7
Tahoma
 73
     1
 44
1.0
1001
ACAD
1000
ACAD_MTEXT_DEFINED_HEIGHT_BEGIN
1070
    46
1040
0.0
1000
ACAD_MTEXT_DEFINED_HEIGHT_END
  0
POINT
  5
354
330
277
100
AcDbEntity
  8
Defpoints
  6
ByBlock
 62
     0
370
    -3
100
AcDbPoint
 10
837.563543
 20
55.114252
 30
0.0
  0
POINT
  5
355
330
277
100
AcDbEntity
  8
Defpoints
  6
ByBlock
 62
     0
370
    -3
100
AcDbPoint
 10
137.563543
 20
37.603409
 30
0.0
  0
POINT
  5
356
330
277
100
AcDbEntity
  8
Defpoints
  6
ByBlock
 62
     0
370
    -3
100
AcDbPoint
 10
137.563543
 20
6.603256000000015
 30
0.0
  0
ENDBLK
  5
27F
330
277
100
AcDbEntity
  8
0
100
AcDbBlockEnd
  0
BLOCK
  5
284
330
283
100
AcDbEntity
  8
0
100
AcDbBlockBegin
  2
*D5
 70
     1
 10
0.0
 20
0.0
 30
0.0
  3
*D5
  1

  0
LINE
  5
286
330
283
100
AcDbEntity
  8
0
 62
    18
370
    -2
100
AcDbLine
 10
837.563543
 20
199.630454
 30
0.0
 11
837.563543
 21
210.456225
 31
0.0
  0
LINE
  5
287
330
283
100
AcDbEntity
  8
0
 62
    18
370
    -2
100
AcDbLine
 10
833.162533
 20
147.321377
 30
0.0
 11
833.162533
 21
210.456225
 31
0.0
  0
LINE
  5
288
330
283
100
AcDbEntity
  8
0
 62
    18
370
    -2
100
AcDbLine
 10
837.563543
 20
208.456225
 30
0.0
 11
926.009302
 21
208.456225
 31
0.0
  0
LINE
  5
289
330
283
100
AcDbEntity
  8
0
 62
    18
370
    -2
100
AcDbLine
 10
841.063543
 20
208.456225
 30
0.0
 11
844.563543
 21
208.456225
 31
0.0
  0
LINE
  5
28A
330
283
100
AcDbEntity
  8
0
 62
    18
370
    -2
100
AcDbLine
 10
829.662533
 20
208.456225
 30
0.0
 11
826.162533
 21
208.456225
 31
0.0
  0
SOLID
  5
28B
330
283
100
AcDbEntity
  8
0
 62
    18
100
AcDbTrace
 10
841.063543
 20
209.039559
 30
0.0
 11
841.063543
 21
207.872892
 31
0.0
 12
837.563543
 22
208.456225
 32
0.0
 13
837.563543
 23
208.456225
 33
0.0
  0
SOLID
  5
28C
330
283
100
AcDbEntity
  8
0
 62
    18
100
AcDbTrace
 10
829.662533
 20
207.872892
 30
0.0
 11
829.662533
 21
209.039559
 31
0.0
 12
833.162533
 22
208.456225
 32
0.0
 13
833.162533
 23
208.456225
 33
0.0
  0
MTEXT
  5
28D
330
283
100
AcDbEntity
  8
0
 62
    18
370
    70
100
AcDbMText
 10
917.509552
 20
215.456225
 30
0.0
 40
3.5
 41
0.0
 46
0.0
 71
     5
 72
     1
  1
\A1;4.4
  7
Tahoma
 73
     1
 44
1.0
1001
ACAD
1000
ACAD_MTEXT_DEFINED_HEIGHT_BEGIN
1070
    46
1040
0.0
1000
ACAD_MTEXT_DEFINED_HEIGHT_END
  0
POINT
  5
28E
330
283
100
AcDbEntity
  8
Defpoints
 62
     0
100
AcDbPoint
 10
837.563543
 20
199.630454
 30
0.0
  0
POINT
  5
28F
330
283
100
AcDbEntity
  8
Defpoints
 62
     0
100
AcDbPoint
 10
833.162533
 20
147.321377
 30
0.0
  0
POINT
  5
290
330
283
100
AcDbEntity
  8
Defpoints
 62
     0
100
AcDbPoint
 10
833.162533
 20
208.456225
 30
0.0
  0
ENDBLK
  5
285
330
283
100
AcDbEntity
  8
0
100
AcDbBlockEnd
  0
BLOCK
  5
296
330
291
100
AcDbEntity
  8
0
100
AcDbBlockBegin
  2
_U2
 70
     0
 10
0.0
 20
0.0
 30
0.0
  3
_U2
  1

  0
LINE
  5
292
330
291
100
AcDbEntity
  8
1
  6
Continuous
 62
    18
370
    35
100
AcDbLine
 10
837.563543
 20
199.630454
 30
0.0
 11
837.563543
 21
210.456225
 31
0.0
  0
LINE
  5
293
330
291
100
AcDbEntity
  8
1
  6
Continuous
 62
    18
370
    35
100
AcDbLine
 10
833.162533
 20
147.321377
 30
0.0
 11
833.162533
 21
210.456225
 31
0.0
  0
LINE
  5
294
330
291
100
AcDbEntity
  8
1
  6
Continuous
 62
    18
370
    35
100
AcDbLine
 10
837.563543
 20
208.456225
 30
0.0
 11
833.162533
 21
208.456225
 31
0.0
  0
LINE
  5
295
330
291
100
AcDbEntity
  8
1
  6
Continuous
 62
    18
370
    35
100
AcDbLine
 10
829.662533
 20
208.456225
 30
0.0
 11
826.162533
 21
208.456225
 31
0.0
  0
LINE
  5
34D
330
291
100
AcDbEntity
  8
1
  6
Continuous
 62
    18
370
    35
100
AcDbLine
 10
841.063543
 20
208.456225
 30
0.0
 11
922.5092162041639
 21
208.456225
 31
0.0
  0
SOLID
  5
34E
330
291
100
AcDbEntity
  8
1
  6
ByBlock
 62
    18
370
    35
100
AcDbTrace
 10
841.063543
 20
207.8728916666666
 30
0.0
 11
841.063543
 21
209.0395583333333
 31
0.0
 12
837.563543
 22
208.456225
 32
0.0
 13
837.563543
 23
208.456225
 33
0.0
  0
SOLID
  5
34F
330
291
100
AcDbEntity
  8
1
  6
ByBlock
 62
    18
370
    35
100
AcDbTrace
 10
829.662533
 20
209.0395583333333
 30
0.0
 11
829.662533
 21
207.8728916666667
 31
0.0
 12
833.162533
 22
208.456225
 32
0.0
 13
833.162533
 23
208.456225
 33
0.0
  0
MTEXT
  5
350
330
291
100
AcDbEntity
  8
1
  6
ByBlock
 62
    18
370
    -2
100
AcDbMText
 10
917.509552
 20
212.3910806077905
 30
0.0
 40
3.5
 41
0.0
 46
0.0
 71
     5
 72
     1
  1
\A1;4,4
  7
Tahoma
 73
     1
 44
1.0
1001
ACAD
1000
ACAD_MTEXT_DEFINED_HEIGHT_BEGIN
1070
    46
1040
0.0
1000
ACAD_MTEXT_DEFINED_HEIGHT_END
  0
POINT
  5
351
330
291
100
AcDbEntity
  8
Defpoints
  6
ByBlock
 62
     0
370
    -3
100
AcDbPoint
 10
837.563543
 20
199.630454
 30
0.0
  0
POINT
  5
352
330
291
100
AcDbEntity
  8
Defpoints
  6
ByBlock
 62
     0
370
    -3
100
AcDbPoint
 10
833.162533
 20
147.321377
 30
0.0
  0
POINT
  5
353
330
291
100
AcDbEntity
  8
Defpoints
  6
ByBlock
 62
     0
370
    -3
100
AcDbPoint
 10
833.162533
 20
208.456225
 30
0.0
  0
ENDBLK
  5
297
330
291
100
AcDbEntity
  8
0
100
AcDbBlockEnd
  0
BLOCK
  5
29C
330
29B
100
AcDbEntity
  8
0
100
AcDbBlockBegin
  2
*D7
 70
     1
 10
0.0
 20
0.0
 30
0.0
  3
*D7
  1

  0
LINE
  5
29E
330
29B
100
AcDbEntity
  8
0
 62
    18
370
    -2
100
AcDbLine
 10
139.563543
 20
177.143527
 30
0.0
 11
139.563543
 21
173.071998
 31
0.0
  0
LINE
  5
29F
330
29B
100
AcDbEntity
  8
0
 62
    18
370
    -2
100
AcDbLine
 10
137.563543
 20
37.603409
 30
0.0
 11
137.563543
 21
177.071998
 31
0.0
  0
LINE
  5
2A0
330
29B
100
AcDbEntity
  8
0
 62
    18
370
    -2
100
AcDbLine
 10
143.063543
 20
175.071998
 30
0.0
 11
146.563543
 21
175.071998
 31
0.0
  0
LINE
  5
2A1
330
29B
100
AcDbEntity
  8
0
 62
    18
370
    -2
100
AcDbLine
 10
134.063543
 20
175.071998
 30
0.0
 11
130.563543
 21
175.071998
 31
0.0
  0
SOLID
  5
2A2
330
29B
100
AcDbEntity
  8
0
 62
    18
100
AcDbTrace
 10
143.063543
 20
175.655331
 30
0.0
 11
143.063543
 21
174.488665
 31
0.0
 12
139.563543
 22
175.071998
 32
0.0
 13
139.563543
 23
175.071998
 33
0.0
  0
SOLID
  5
2A3
330
29B
100
AcDbEntity
  8
0
 62
    18
100
AcDbTrace
 10
134.063543
 20
174.488665
 30
0.0
 11
134.063543
 21
175.655331
 31
0.0
 12
137.563543
 22
175.071998
 32
0.0
 13
137.563543
 23
175.071998
 33
0.0
  0
MTEXT
  5
2A4
330
29B
100
AcDbEntity
  8
0
 62
    18
370
    70
100
AcDbMText
 10
138.563543
 20
182.108748
 30
0.0
 40
3.5
 41
0.0
 46
0.0
 71
     5
 72
     1
  1
\A1;2
  7
Tahoma
 73
     1
 44
1.0
1001
ACAD
1000
ACAD_MTEXT_DEFINED_HEIGHT_BEGIN
1070
    46
1040
0.0
1000
ACAD_MTEXT_DEFINED_HEIGHT_END
  0
POINT
  5
2A5
330
29B
100
AcDbEntity
  8
Defpoints
 62
     0
100
AcDbPoint
 10
139.563543
 20
177.143527
 30
0.0
  0
POINT
  5
2A6
330
29B
100
AcDbEntity
  8
Defpoints
 62
     0
100
AcDbPoint
 10
137.563543
 20
37.603409
 30
0.0
  0
POINT
  5
2A7
330
29B
100
AcDbEntity
  8
Defpoints
 62
     0
100
AcDbPoint
 10
137.563543
 20
175.071998
 30
0.0
  0
ENDBLK
  5
29D
330
29B
100
AcDbEntity
  8
0
100
AcDbBlockEnd
  0
BLOCK
  5
2AD
330
2A8
100
AcDbEntity
  8
0
100
AcDbBlockBegin
  2
_U3
 70
     0
 10
0.0
 20
0.0
 30
0.0
  3
_U3
  1

  0
LINE
  5
2A9
330
2A8
100
AcDbEntity
  8
1
  6
Continuous
 62
    18
370
    35
100
AcDbLine
 10
139.563543
 20
177.143527
 30
0.0
 11
139.563543
 21
173.071998
 31
0.0
  0
LINE
  5
2AA
330
2A8
100
AcDbEntity
  8
1
  6
Continuous
 62
    18
370
    35
100
AcDbLine
 10
137.563543
 20
37.603409
 30
0.0
 11
137.563543
 21
177.071998
 31
0.0
  0
LINE
  5
2AB
330
2A8
100
AcDbEntity
  8
1
  6
Continuous
 62
    18
370
    35
100
AcDbLine
 10
139.563543
 20
175.071998
 30
0.0
 11
137.563543
 21
175.071998
 31
0.0
  0
LINE
  5
2AC
330
2A8
100
AcDbEntity
  8
1
  6
Continuous
 62
    18
370
    35
100
AcDbLine
 10
143.063543
 20
175.071998
 30
0.0
 11
146.563543
 21
175.071998
 31
0.0
  0
LINE
  5
346
330
2A8
100
AcDbEntity
  8
1
  6
Continuous
 62
    18
370
    35
100
AcDbLine
 10
134.063543
 20
175.071998
 30
0.0
 11
130.563543
 21
175.071998
 31
0.0
  0
SOLID
  5
347
330
2A8
100
AcDbEntity
  8
1
  6
ByBlock
 62
    18
370
    35
100
AcDbTrace
 10
143.063543
 20
174.4886646666667
 30
0.0
 11
143.063543
 21
175.6553313333333
 31
0.0
 12
139.563543
 22
175.071998
 32
0.0
 13
139.563543
 23
175.071998
 33
0.0
  0
SOLID
  5
348
330
2A8
100
AcDbEntity
  8
1
  6
ByBlock
 62
    18
370
    35
100
AcDbTrace
 10
134.063543
 20
175.6553313333334
 30
0.0
 11
134.063543
 21
174.4886646666667
 31
0.0
 12
137.563543
 22
175.071998
 32
0.0
 13
137.563543
 23
175.071998
 33
0.0
  0
MTEXT
  5
349
330
2A8
100
AcDbEntity
  8
1
  6
ByBlock
 62
    18
370
    -2
100
AcDbMText
 10
138.563543
 20
178.6084318482203
 30
0.0
 40
3.5
 41
0.0
 46
0.0
 71
     5
 72
     1
  1
\A1;2
  7
Tahoma
 73
     1
 44
1.0
1001
ACAD
1000
ACAD_MTEXT_DEFINED_HEIGHT_BEGIN
1070
    46
1040
0.0
1000
ACAD_MTEXT_DEFINED_HEIGHT_END
  0
POINT
  5
34A
330
2A8
100
AcDbEntity
  8
Defpoints
  6
ByBlock
 62
     0
370
    -3
100
AcDbPoint
 10
139.563543
 20
177.143527
 30
0.0
  0
POINT
  5
34B
330
2A8
100
AcDbEntity
  8
Defpoints
  6
ByBlock
 62
     0
370
    -3
100
AcDbPoint
 10
137.563543
 20
37.603409
 30
0.0
  0
POINT
  5
34C
330
2A8
100
AcDbEntity
  8
Defpoints
  6
ByBlock
 62
     0
370
    -3
100
AcDbPoint
 10
137.563543
 20
175.071998
 30
0.0
  0
ENDBLK
  5
2AE
330
2A8
100
AcDbEntity
  8
0
100
AcDbBlockEnd
  0
BLOCK
  5
2B3
330
2B2
100
AcDbEntity
  8
0
100
AcDbBlockBegin
  2
*D9
 70
     1
 10
0.0
 20
0.0
 30
0.0
  3
*D9
  1

  0
LINE
  5
2B5
330
2B2
100
AcDbEntity
  8
0
 62
    18
370
    -2
100
AcDbLine
 10
466.783246
 20
690.603409
 30
0.0
 11
872.398915
 21
690.603409
 31
0.0
  0
LINE
  5
2B6
330
2B2
100
AcDbEntity
  8
0
 62
    18
370
    -2
100
AcDbLine
 10
487.563543
 20
692.603409
 30
0.0
 11
872.398915
 21
692.603409
 31
0.0
  0
LINE
  5
2B7
330
2B2
100
AcDbEntity
  8
0
 62
    18
370
    -2
100
AcDbLine
 10
870.398915
 20
690.603409
 30
0.0
 11
870.398915
 21
670.943909
 31
0.0
  0
LINE
  5
2B8
330
2B2
100
AcDbEntity
  8
0
 62
    18
370
    -2
100
AcDbLine
 10
870.398915
 20
687.103409
 30
0.0
 11
870.398915
 21
683.603409
 31
0.0
  0
LINE
  5
2B9
330
2B2
100
AcDbEntity
  8
0
 62
    18
370
    -2
100
AcDbLine
 10
870.398915
 20
696.103409
 30
0.0
 11
870.398915
 21
699.603409
 31
0.0
  0
SOLID
  5
2BA
330
2B2
100
AcDbEntity
  8
0
 62
    18
100
AcDbTrace
 10
870.982248
 20
687.103409
 30
0.0
 11
869.815581
 21
687.103409
 31
0.0
 12
870.398915
 22
690.603409
 32
0.0
 13
870.398915
 23
690.603409
 33
0.0
  0
SOLID
  5
2BB
330
2B2
100
AcDbEntity
  8
0
 62
    18
100
AcDbTrace
 10
869.815581
 20
696.103409
 30
0.0
 11
870.982248
 21
696.103409
 31
0.0
 12
870.398915
 22
692.603409
 32
0.0
 13
870.398915
 23
692.603409
 33
0.0
  0
MTEXT
  5
2BC
330
2B2
100
AcDbEntity
  8
0
 62
    18
370
    70
100
AcDbMText
 10
863.362165
 20
677.273659
 30
0.0
 40
3.5
 41
0.0
 46
0.0
 71
     5
 72
     1
  1
\A1;2
  7
Tahoma
 11
0.0
 21
1.0
 31
0.0
 73
     1
 44
1.0
1001
ACAD
1000
ACAD_MTEXT_DEFINED_HEIGHT_BEGIN
1070
    46
1040
0.0
1000
ACAD_MTEXT_DEFINED_HEIGHT_END
  0
POINT
  5
2BD
330
2B2
100
AcDbEntity
  8
Defpoints
 62
     0
100
AcDbPoint
 10
466.783246
 20
690.603409
 30
0.0
  0
POINT
  5
2BE
330
2B2
100
AcDbEntity
  8
Defpoints
 62
     0
100
AcDbPoint
 10
487.563543
 20
692.603409
 30
0.0
  0
POINT
  5
2BF
330
2B2
100
AcDbEntity
  8
Defpoints
 62
     0
100
AcDbPoint
 10
870.398915
 20
692.603409
 30
0.0
  0
ENDBLK
  5
2B4
330
2B2
100
AcDbEntity
  8
0
100
AcDbBlockEnd
  0
BLOCK
  5
2C7
330
2C0
100
AcDbEntity
  8
0
100
AcDbBlockBegin
  2
_U4
 70
     0
 10
0.0
 20
0.0
 30
0.0
  3
_U4
  1

  0
LINE
  5
2C1
330
2C0
100
AcDbEntity
  8
1
  6
Continuous
 62
    18
370
    35
100
AcDbLine
 10
466.783246
 20
690.603409
 30
0.0
 11
879.4353488482203
 21
690.603409
 31
0.0
  0
LINE
  5
2C2
330
2C0
100
AcDbEntity
  8
1
  6
Continuous
 62
    18
370
    35
100
AcDbLine
 10
487.563543
 20
692.603409
 30
0.0
 11
879.4353488482203
 21
692.603409
 31
0.0
  0
LINE
  5
2C3
330
2C0
100
AcDbEntity
  8
1
  6
Continuous
 62
    18
370
    35
100
AcDbLine
 10
877.4353488482203
 20
690.603409
 30
0.0
 11
877.4353488482203
 21
692.603409
 31
0.0
  0
LINE
  5
2C4
330
2C0
100
AcDbEntity
  8
1
  6
Continuous
 62
    18
370
    35
100
AcDbLine
 10
877.4353488482203
 20
696.103409
 30
0.0
 11
877.4353488482203
 21
699.603409
 31
0.0
  0
LINE
  5
2C5
330
2C0
100
AcDbEntity
  8
1
  6
Continuous
 62
    18
370
    35
100
AcDbLine
 10
877.4353488482203
 20
687.103409
 30
0.0
 11
877.4353488482203
 21
677.273659
 31
0.0
  0
LINE
  5
2C6
330
2C0
100
AcDbEntity
  8
1
  6
Continuous
 62
    18
370
    35
100
AcDbLine
 10
877.4353488482203
 20
677.273659
 30
0.0
 11
873.9353488482203
 21
677.273659
 31
0.0
  0
SOLID
  5
340
330
2C0
100
AcDbEntity
  8
1
  6
ByBlock
 62
    18
370
    35
100
AcDbTrace
 10
876.852015514887
 20
687.103409
 30
0.0
 11
878.0186821815536
 21
687.103409
 31
0.0
 12
877.4353488482203
 22
690.603409
 32
0.0
 13
877.4353488482203
 23
690.603409
 33
0.0
  0
SOLID
  5
341
330
2C0
100
AcDbEntity
  8
1
  6
ByBlock
 62
    18
370
    35
100
AcDbTrace
 10
878.0186821815537
 20
696.103409
 30
0.0
 11
876.8520155148871
 21
696.103409
 31
0.0
 12
877.4353488482203
 22
692.603409
 32
0.0
 13
877.4353488482203
 23
692.603409
 33
0.0
  0
MTEXT
  5
342
330
2C0
100
AcDbEntity
  8
1
  6
ByBlock
 62
    18
370
    -2
100
AcDbMText
 10
870.398915
 20
677.273659
 30
0.0
 40
3.5
 41
0.0
 46
0.0
 71
     5
 72
     1
  1
\A1;2
  7
Tahoma
 11
6.123233995736766E-17
 21
1.0
 31
0.0
 73
     1
 44
1.0
1001
ACAD
1000
ACAD_MTEXT_DEFINED_HEIGHT_BEGIN
1070
    46
1040
0.0
1000
ACAD_MTEXT_DEFINED_HEIGHT_END
  0
POINT
  5
343
330
2C0
100
AcDbEntity
  8
Defpoints
  6
ByBlock
 62
     0
370
    -3
100
AcDbPoint
 10
466.783246
 20
690.603409
 30
0.0
  0
POINT
  5
344
330
2C0
100
AcDbEntity
  8
Defpoints
  6
ByBlock
 62
     0
370
    -3
100
AcDbPoint
 10
487.563543
 20
692.603409
 30
0.0
  0
POINT
  5
345
330
2C0
100
AcDbEntity
  8
Defpoints
  6
ByBlock
 62
     0
370
    -3
100
AcDbPoint
 10
877.4353488482203
 20
692.603409
 30
0.0
  0
ENDBLK
  5
2C8
330
2C0
100
AcDbEntity
  8
0
100
AcDbBlockEnd
  0
BLOCK
  5
2CD
330
2CC
100
AcDbEntity
  8
0
100
AcDbBlockBegin
  2
*D11
 70
     1
 10
0.0
 20
0.0
 30
0.0
  3
*D11
  1

  0
LINE
  5
2CF
330
2CC
100
AcDbEntity
  8
0
 62
    18
370
    -2
100
AcDbLine
 10
161.035682
 20
40.603409
 30
0.0
 11
145.826905
 21
40.603409
 31
0.0
  0
LINE
  5
2D0
330
2CC
100
AcDbEntity
  8
0
 62
    18
370
    -2
100
AcDbLine
 10
137.563543
 20
37.603409
 30
0.0
 11
149.826905
 21
37.603409
 31
0.0
  0
LINE
  5
2D1
330
2CC
100
AcDbEntity
  8
0
 62
    18
370
    -2
100
AcDbLine
 10
147.826905
 20
44.103409
 30
0.0
 11
147.826905
 21
47.603409
 31
0.0
  0
LINE
  5
2D2
330
2CC
100
AcDbEntity
  8
0
 62
    18
370
    -2
100
AcDbLine
 10
147.826905
 20
34.103409
 30
0.0
 11
147.826905
 21
30.603409
 31
0.0
  0
SOLID
  5
2D3
330
2CC
100
AcDbEntity
  8
0
 62
    18
100
AcDbTrace
 10
147.243572
 20
44.103409
 30
0.0
 11
148.410239
 21
44.103409
 31
0.0
 12
147.826905
 22
40.603409
 32
0.0
 13
147.826905
 23
40.603409
 33
0.0
  0
SOLID
  5
2D4
330
2CC
100
AcDbEntity
  8
0
 62
    18
100
AcDbTrace
 10
148.410239
 20
34.103409
 30
0.0
 11
147.243572
 21
34.103409
 31
0.0
 12
147.826905
 22
37.603409
 32
0.0
 13
147.826905
 23
37.603409
 33
0.0
  0
MTEXT
  5
2D5
330
2CC
100
AcDbEntity
  8
0
 62
    18
370
    70
100
AcDbMText
 10
140.753405
 20
39.103409
 30
0.0
 40
3.5
 41
0.0
 46
0.0
 71
     5
 72
     1
  1
\A1;3
  7
Tahoma
 11
0.0
 21
1.0
 31
0.0
 73
     1
 44
1.0
1001
ACAD
1000
ACAD_MTEXT_DEFINED_HEIGHT_BEGIN
1070
    46
1040
0.0
1000
ACAD_MTEXT_DEFINED_HEIGHT_END
  0
POINT
  5
2D6
330
2CC
100
AcDbEntity
  8
Defpoints
 62
     0
100
AcDbPoint
 10
161.035682
 20
40.603409
 30
0.0
  0
POINT
  5
2D7
330
2CC
100
AcDbEntity
  8
Defpoints
 62
     0
100
AcDbPoint
 10
137.563543
 20
37.603409
 30
0.0
  0
POINT
  5
2D8
330
2CC
100
AcDbEntity
  8
Defpoints
 62
     0
100
AcDbPoint
 10
147.826905
 20
37.603409
 30
0.0
  0
ENDBLK
  5
2CE
330
2CC
100
AcDbEntity
  8
0
100
AcDbBlockEnd
  0
BLOCK
  5
2DF
330
2D9
100
AcDbEntity
  8
0
100
AcDbBlockBegin
  2
_U5
 70
     0
 10
0.0
 20
0.0
 30
0.0
  3
_U5
  1

  0
LINE
  5
2DA
330
2D9
100
AcDbEntity
  8
1
  6
Continuous
 62
    18
370
    35
100
AcDbLine
 10
161.035682
 20
40.603409
 30
0.0
 11
145.826905
 21
40.603409
 31
0.0
  0
LINE
  5
2DB
330
2D9
100
AcDbEntity
  8
1
  6
Continuous
 62
    18
370
    35
100
AcDbLine
 10
137.563543
 20
37.603409
 30
0.0
 11
149.826905
 21
37.603409
 31
0.0
  0
LINE
  5
2DC
330
2D9
100
AcDbEntity
  8
1
  6
Continuous
 62
    18
370
    35
100
AcDbLine
 10
147.826905
 20
40.603409
 30
0.0
 11
147.826905
 21
37.603409
 31
0.0
  0
LINE
  5
2DD
330
2D9
100
AcDbEntity
  8
1
  6
Continuous
 62
    18
370
    35
100
AcDbLine
 10
147.826905
 20
44.103409
 30
0.0
 11
147.826905
 21
47.603409
 31
0.0
  0
LINE
  5
2DE
330
2D9
100
AcDbEntity
  8
1
  6
Continuous
 62
    18
370
    35
100
AcDbLine
 10
147.826905
 20
34.103409
 30
0.0
 11
147.826905
 21
30.603409
 31
0.0
  0
SOLID
  5
33A
330
2D9
100
AcDbEntity
  8
1
  6
ByBlock
 62
    18
370
    35
100
AcDbTrace
 10
148.4102383333334
 20
44.103409
 30
0.0
 11
147.2435716666667
 21
44.103409
 31
0.0
 12
147.826905
 22
40.603409
 32
0.0
 13
147.826905
 23
40.603409
 33
0.0
  0
SOLID
  5
33B
330
2D9
100
AcDbEntity
  8
1
  6
ByBlock
 62
    18
370
    35
100
AcDbTrace
 10
147.2435716666667
 20
34.103409
 30
0.0
 11
148.4102383333333
 21
34.103409
 31
0.0
 12
147.826905
 22
37.603409
 32
0.0
 13
147.826905
 23
37.603409
 33
0.0
  0
MTEXT
  5
33C
330
2D9
100
AcDbEntity
  8
1
  6
ByBlock
 62
    18
370
    -2
100
AcDbMText
 10
147.826905
 20
39.103409
 30
0.0
 40
3.5
 41
0.0
 46
0.0
 71
     5
 72
     1
  1
\A1;3
  7
Tahoma
 11
6.123233995736766E-17
 21
1.0
 31
0.0
 73
     1
 44
1.0
1001
ACAD
1000
ACAD_MTEXT_DEFINED_HEIGHT_BEGIN
1070
    46
1040
0.0
1000
ACAD_MTEXT_DEFINED_HEIGHT_END
  0
POINT
  5
33D
330
2D9
100
AcDbEntity
  8
Defpoints
  6
ByBlock
 62
     0
370
    -3
100
AcDbPoint
 10
161.035682
 20
40.603409
 30
0.0
  0
POINT
  5
33E
330
2D9
100
AcDbEntity
  8
Defpoints
  6
ByBlock
 62
     0
370
    -3
100
AcDbPoint
 10
137.563543
 20
37.603409
 30
0.0
  0
POINT
  5
33F
330
2D9
100
AcDbEntity
  8
Defpoints
  6
ByBlock
 62
     0
370
    -3
100
AcDbPoint
 10
147.826905
 20
37.603409
 30
0.0
  0
ENDBLK
  5
2E0
330
2D9
100
AcDbEntity
  8
0
100
AcDbBlockEnd
  0
BLOCK
  5
36F
330
364
100
AcDbEntity
  8
0
100
AcDbBlockBegin
  2
*D13
 70
     1
 10
0.0
 20
0.0
 30
0.0
  3
*D13
  1
Acad:XRef
  0
ARC
  5
365
330
364
100
AcDbEntity
  8
0
 62
     0
370
    -2
100
AcDbCircle
 10
230.921167
 20
615.263775
 30
0.0
 40
1.0576069997146
100
AcDbArc
 50
124.5381748106081
 51
149.0652824567076
  0
ARC
  5
366
330
364
100
AcDbEntity
  8
0
 62
     0
370
    -2
100
AcDbCircle
 10
230.921167
 20
615.263775
 30
0.0
 40
1.0576069997146
100
AcDbArc
 50
169.9987304315418
 51
195.2367056669831
  0
SOLID
  5
367
330
364
100
AcDbEntity
  8
0
 62
     0
370
    -2
100
AcDbTrace
 10
230.3067072208806
 20
616.1610475250486
 30
0.0
 11
230.3363951886965
 21
616.1089070938367
 31
0.0
 12
230.4779724984244
 22
616.2240412128901
 32
0.0
 13
230.4779724984244
 23
616.2240412128901
 33
0.0
  0
SOLID
  5
368
330
364
100
AcDbEntity
  8
0
 62
     0
370
    -2
100
AcDbTrace
 10
229.9289061773363
 20
614.9961469238666
 30
0.0
 11
229.8725671299234
 21
614.9755092947246
 31
0.0
 12
229.962649541056
 22
614.8168109670568
 32
0.0
 13
229.962649541056
 23
614.8168109670568
 33
0.0
  0
MTEXT
  5
369
330
364
100
AcDbEntity
  8
0
 62
     0
370
    -2
100
AcDbMText
 10
229.928054042546
 20
615.6274496067329
 30
0.0
 40
0.18
 41
0.0
 46
0.0
 71
     5
 72
     1
  1
\A1;90%%D
 73
     1
 44
1.0
1001
ACAD
1000
ACAD_MTEXT_DEFINED_HEIGHT_BEGIN
1070
    46
1040
0.0
1000
ACAD_MTEXT_DEFINED_HEIGHT_END
  0
POINT
  5
36A
330
364
100
AcDbEntity
  8
Defpoints
 62
     0
370
    -3
100
AcDbPoint
 10
230.0564180016332
 20
615.8726606507333
 30
0.0
  0
POINT
  5
36B
330
364
100
AcDbEntity
  8
Defpoints
 62
     0
370
    -3
100
AcDbPoint
 10
230.921167
 20
615.263775
 30
0.0
  0
POINT
  5
36C
330
364
100
AcDbEntity
  8
Defpoints
 62
     0
370
    -3
100
AcDbPoint
 10
230.0879489227454
 20
617.0691023781881
 30
0.0
  0
POINT
  5
36D
330
364
100
AcDbEntity
  8
Defpoints
 62
     0
370
    -3
100
AcDbPoint
 10
230.921167
 20
615.263775
 30
0.0
  0
POINT
  5
36E
330
364
100
AcDbEntity
  8
Defpoints
 62
     0
370
    -3
100
AcDbPoint
 10
140.718306
 20
573.20149
 30
0.0
  0
ENDBLK
  5
370
330
364
100
AcDbEntity
  8
0
100
AcDbBlockEnd
  0
BLOCK
  5
392
330
387
100
AcDbEntity
  8
0
100
AcDbBlockBegin
  2
*D14
 70
     1
 10
0.0
 20
0.0
 30
0.0
  3
*D14
  1
Acad:XRef
  0
ARC
  5
388
330
387
100
AcDbEntity
  8
0
 62
     0
370
    -2
100
AcDbCircle
 10
230.0879489227454
 20
617.0727307613497
 30
0.0
 40
1.874448682876487
100
AcDbArc
 50
300.2352672964037
 51
333.8800265075304
  0
ARC
  5
389
330
387
100
AcDbEntity
  8
0
 62
     0
370
    -2
100
AcDbCircle
 10
230.0879489227454
 20
617.0727307613497
 30
0.0
 40
1.874448682876487
100
AcDbArc
 50
345.6292297490667
 51
19.49587116609319
  0
SOLID
  5
38A
330
387
100
AcDbEntity
  8
0
 62
     0
370
    -2
100
AcDbTrace
 10
231.0456756602436
 20
615.4266582936037
 30
0.0
 11
231.0179863470748
 21
615.4798870634208
 31
0.0
 12
230.8721446942079
 22
615.3702047390059
 32
0.0
 13
230.8721446942079
 23
615.3702047390059
 33
0.0
  0
SOLID
  5
38B
330
387
100
AcDbEntity
  8
0
 62
     0
370
    -2
100
AcDbTrace
 10
231.8271604844766
 20
617.6869488009946
 30
0.0
 11
231.882693733264
 21
617.709665717139
 31
0.0
 12
231.786776360437
 22
617.8649070054291
 32
0.0
 13
231.786776360437
 23
617.8649070054291
 33
0.0
  0
MTEXT
  5
38C
330
387
100
AcDbEntity
  8
0
 62
     0
370
    -2
100
AcDbMText
 10
231.8478454861331
 20
616.4275006079055
 30
0.0
 40
0.18
 41
0.0
 46
0.0
 71
     5
 72
     1
  1
\A1;90%%D
 73
     1
 44
1.0
1001
ACAD
1000
ACAD_MTEXT_DEFINED_HEIGHT_BEGIN
1070
    46
1040
0.0
1000
ACAD_MTEXT_DEFINED_HEIGHT_END
  0
POINT
  5
38D
330
387
100
AcDbEntity
  8
Defpoints
 62
     0
370
    -3
100
AcDbPoint
 10
231.6200364766134
 20
615.992792989059
 30
0.0
  0
POINT
  5
38E
330
387
100
AcDbEntity
  8
Defpoints
 62
     0
370
    -3
100
AcDbPoint
 10
230.921167
 20
615.263775
 30
0.0
  0
POINT
  5
38F
330
387
100
AcDbEntity
  8
Defpoints
 62
     0
370
    -3
100
AcDbPoint
 10
230.0879489227454
 20
617.0727307613497
 30
0.0
  0
POINT
  5
390
330
387
100
AcDbEntity
  8
Defpoints
 62
     0
370
    -3
100
AcDbPoint
 10
230.0879489227454
 20
617.0727307613497
 30
0.0
  0
POINT
  5
391
330
387
100
AcDbEntity
  8
Defpoints
 62
     0
370
    -3
100
AcDbPoint
 10
231.9005644968187
 20
617.9179672848311
 30
0.0
  0
ENDBLK
  5
393
330
387
100
AcDbEntity
  8
0
100
AcDbBlockEnd
  0
BLOCK
  5
3B6
330
3AB
100
AcDbEntity
  8
0
100
AcDbBlockBegin
  2
*D15
 70
     1
 10
0.0
 20
0.0
 30
0.0
  3
*D15
  1
Acad:XRef
  0
ARC
  5
3AC
330
3AB
100
AcDbEntity
  8
0
 62
     0
370
    -2
100
AcDbCircle
 10
489.563543
 20
60.603409
 30
0.0
 40
1.198591342026441
100
AcDbArc
 50
33.61257379797073
 51
54.56357429201051
  0
ARC
  5
3AD
330
3AB
100
AcDbEntity
  8
0
 62
     0
370
    -2
100
AcDbCircle
 10
489.563543
 20
60.603409
 30
0.0
 40
1.198591342026441
100
AcDbArc
 50
84.01655961132494
 51
106.3874257544925
  0
SOLID
  5
3AE
330
3AB
100
AcDbEntity
  8
0
  6
ByBlock
 62
     0
370
    -2
100
AcDbTrace
 10
490.5878900688971
 20
61.28160273601824
 30
0.0
 11
490.5355691347768
 21
61.25223404771283
 31
0.0
 12
490.6498356667532
 22
61.10995558950467
 32
0.0
 13
490.6498356667532
 23
61.10995558950467
 33
0.0
  0
SOLID
  5
3AF
330
3AB
100
AcDbEntity
  8
0
  6
ByBlock
 62
     0
370
    -2
100
AcDbTrace
 10
489.2359844911745
 20
61.72524418064145
 30
0.0
 11
489.2147821597267
 21
61.78137314946487
 31
0.0
 12
489.0569964189804
 22
61.6897016707099
 32
0.0
 13
489.0569964189804
 23
61.6897016707099
 33
0.0
  0
MTEXT
  5
3B0
330
3AB
100
AcDbEntity
  8
0
  6
ByBlock
 62
     0
370
    -2
100
AcDbMText
 10
489.9734853869875
 20
61.72971643783909
 30
0.0
 40
0.18
 41
0.0
 46
0.0
 71
     5
 72
     1
  1
\A1;90%%D
 73
     1
 44
1.0
1001
ACAD
1000
ACAD_MTEXT_DEFINED_HEIGHT_BEGIN
1070
    46
1040
0.0
1000
ACAD_MTEXT_DEFINED_HEIGHT_END
  0
POINT
  5
3B1
330
3AB
100
AcDbEntity
  8
Defpoints
  6
ByBlock
 62
     0
370
    -3
100
AcDbPoint
 10
490.2510267531571
 20
61.58523754629807
 30
0.0
  0
POINT
  5
3B2
330
3AB
100
AcDbEntity
  8
Defpoints
  6
ByBlock
 62
     0
370
    -3
100
AcDbPoint
 10
489.563543
 20
60.603409
 30
0.0
  0
POINT
  5
3B3
330
3AB
100
AcDbEntity
  8
Defpoints
  6
ByBlock
 62
     0
370
    -3
100
AcDbPoint
 10
491.3761585740733
 20
61.4486455234814
 30
0.0
  0
POINT
  5
3B4
330
3AB
100
AcDbEntity
  8
Defpoints
  6
ByBlock
 62
     0
370
    -3
100
AcDbPoint
 10
489.563543
 20
60.603409
 30
0.0
  0
POINT
  5
3B5
330
3AB
100
AcDbEntity
  8
Defpoints
  6
ByBlock
 62
     0
370
    -3
100
AcDbPoint
 10
476.246517
 20
89.161864
 30
0.0
  0
ENDBLK
  5
3B7
330
3AB
100
AcDbEntity
  8
0
100
AcDbBlockEnd
  0
BLOCK
  5
3D2
330
3C7
100
AcDbEntity
  8
0
100
AcDbBlockBegin
  2
*D16
 70
     1
 10
0.0
 20
0.0
 30
0.0
  3
*D16
  1
Acad:XRef
  0
ARC
  5
3C8
330
3C7
100
AcDbEntity
  8
0
 62
     0
370
    -2
100
AcDbCircle
 10
139.8730694765186
 20
575.0141055740734
 30
0.0
 40
1.100331449835861
100
AcDbArc
 50
304.3833314039103
 51
329.6256990928206
  0
ARC
  5
3C9
330
3C7
100
AcDbEntity
  8
0
 62
     0
370
    -2
100
AcDbCircle
 10
139.8730694765186
 20
575.0141055740734
 30
0.0
 40
1.100331449835861
100
AcDbArc
 50
349.7191883034726
 51
15.61183566637101
  0
SOLID
  5
3CA
330
3C7
100
AcDbEntity
  8
0
  6
ByBlock
 62
     0
370
    -2
100
AcDbTrace
 10
140.5093162540477
 20
574.0799653215338
 30
0.0
 11
140.4795963153738
 21
574.1320875360418
 31
0.0
 12
140.3380896411869
 22
574.0168666127659
 32
0.0
 13
140.3380896411869
 23
574.0168666127659
 33
0.0
  0
SOLID
  5
3CB
330
3C7
100
AcDbEntity
  8
0
  6
ByBlock
 62
     0
370
    -2
100
AcDbTrace
 10
140.90467036086
 20
575.2998156388087
 30
0.0
 11
140.9609424247489
 21
575.3206352167506
 31
0.0
 12
140.8703476589787
 22
575.4790416194464
 32
0.0
 13
140.8703476589787
 23
575.4790416194464
 33
0.0
  0
MTEXT
  5
3CC
330
3C7
100
AcDbEntity
  8
0
  6
ByBlock
 62
     0
370
    -2
100
AcDbMText
 10
140.907026947377
 20
574.6377264461265
 30
0.0
 40
0.18
 41
0.0
 46
0.0
 71
     5
 72
     1
  1
\A1;90%%D
 73
     1
 44
1.0
1001
ACAD
1000
ACAD_MTEXT_DEFINED_HEIGHT_BEGIN
1070
    46
1040
0.0
1000
ACAD_MTEXT_DEFINED_HEIGHT_END
  0
POINT
  5
3CD
330
3C7
100
AcDbEntity
  8
Defpoints
  6
ByBlock
 62
     0
370
    -3
100
AcDbPoint
 10
140.7743904874696
 20
574.3829560397186
 30
0.0
  0
POINT
  5
3CE
330
3C7
100
AcDbEntity
  8
Defpoints
  6
ByBlock
 62
     0
370
    -3
100
AcDbPoint
 10
139.8730694765186
 20
575.0141055740734
 30
0.0
  0
POINT
  5
3CF
330
3C7
100
AcDbEntity
  8
Defpoints
  6
ByBlock
 62
     0
370
    -3
100
AcDbPoint
 10
230.0879489227454
 20
617.0727307613497
 30
0.0
  0
POINT
  5
3D0
330
3C7
100
AcDbEntity
  8
Defpoints
  6
ByBlock
 62
     0
370
    -3
100
AcDbPoint
 10
140.718306
 20
573.20149
 30
0.0
  0
POINT
  5
3D1
330
3C7
100
AcDbEntity
  8
Defpoints
  6
ByBlock
 62
     0
370
    -3
100
AcDbPoint
 10
139.8730694765186
 20
575.0141055740734
 30
0.0
  0
ENDBLK
  5
3D3
330
3C7
100
AcDbEntity
  8
0
100
AcDbBlockEnd
  0
BLOCK
  5
3EA
330
3DF
100
AcDbEntity
  8
0
100
AcDbBlockBegin
  2
*D17
 70
     1
 10
0.0
 20
0.0
 30
0.0
  3
*D17
  1
Acad:XRef
  0
LINE
  5
3E0
330
3DF
100
AcDbEntity
  8
0
 62
     0
370
    -2
100
AcDbLine
 10
137.563543
 20
37.540909
 30
0.0
 11
137.563543
 21
0.1815196537840662
 31
0.0
  0
LINE
  5
3E1
330
3DF
100
AcDbEntity
  8
0
 62
     0
370
    -2
100
AcDbLine
 10
837.563543
 20
37.540909
 30
0.0
 11
837.563543
 21
0.1815196537840662
 31
0.0
  0
LINE
  5
3E2
330
3DF
100
AcDbEntity
  8
0
 62
     0
370
    -2
100
AcDbLine
 10
137.743543
 20
0.3615196537840662
 30
0.0
 11
486.933543
 21
0.3615196537840662
 31
0.0
  0
LINE
  5
3E3
330
3DF
100
AcDbEntity
  8
0
 62
     0
370
    -2
100
AcDbLine
 10
488.193543
 20
0.3615196537840662
 30
0.0
 11
837.383543
 21
0.3615196537840662
 31
0.0
  0
SOLID
  5
3E4
330
3DF
100
AcDbEntity
  8
0
 62
     0
370
    -2
100
AcDbTrace
 10
137.743543
 20
0.3315196537840662
 30
0.0
 11
137.743543
 21
0.3915196537840662
 31
0.0
 12
137.563543
 22
0.3615196537840662
 32
0.0
 13
137.563543
 23
0.3615196537840662
 33
0.0
  0
SOLID
  5
3E5
330
3DF
100
AcDbEntity
  8
0
 62
     0
370
    -2
100
AcDbTrace
 10
837.383543
 20
0.3915196537840662
 30
0.0
 11
837.383543
 21
0.3315196537840662
 31
0.0
 12
837.563543
 22
0.3615196537840662
 32
0.0
 13
837.563543
 23
0.3615196537840662
 33
0.0
  0
MTEXT
  5
3E6
330
3DF
100
AcDbEntity
  8
0
 62
     0
370
    -2
100
AcDbMText
 10
487.563543
 20
0.3615196537840662
 30
0.0
 40
0.18
 41
0.0
 46
0.0
 71
     5
 72
     1
  1
\A1;700.0000
 73
     1
 44
1.0
1001
ACAD
1000
ACAD_MTEXT_DEFINED_HEIGHT_BEGIN
1070
    46
1040
0.0
1000
ACAD_MTEXT_DEFINED_HEIGHT_END
  0
POINT
  5
3E7
330
3DF
100
AcDbEntity
  8
Defpoints
 62
     0
370
    -3
100
AcDbPoint
 10
137.563543
 20
37.603409
 30
0.0
  0
POINT
  5
3E8
330
3DF
100
AcDbEntity
  8
Defpoints
 62
     0
370
    -3
100
AcDbPoint
 10
837.563543
 20
37.603409
 30
0.0
  0
POINT
  5
3E9
330
3DF
100
AcDbEntity
  8
Defpoints
 62
     0
370
    -3
100
AcDbPoint
 10
837.563543
 20
0.3615196537840662
 30
0.0
  0
ENDBLK
  5
3EB
330
3DF
100
AcDbEntity
  8
0
100
AcDbBlockEnd
  0
BLOCK
  5
476
330
46B
100
AcDbEntity
  8
0
100
AcDbBlockBegin
  2
*D18
 70
     1
 10
0.0
 20
0.0
 30
0.0
  3
*D18
  1
Acad:XRef
  0
LINE
  5
46C
330
46B
100
AcDbEntity
  8
0
 62
     0
370
    -2
100
AcDbLine
 10
137.563543
 20
692.665909
 30
0.0
 11
137.563543
 21
692.808633101564
 31
0.0
  0
LINE
  5
46D
330
46B
100
AcDbEntity
  8
0
 62
     0
370
    -2
100
AcDbLine
 10
837.563543
 20
692.665909
 30
0.0
 11
837.563543
 21
692.808633101564
 31
0.0
  0
LINE
  5
46E
330
46B
100
AcDbEntity
  8
0
 62
     0
370
    -2
100
AcDbLine
 10
137.743543
 20
692.6286331015641
 30
0.0
 11
486.933543
 21
692.6286331015641
 31
0.0
  0
LINE
  5
46F
330
46B
100
AcDbEntity
  8
0
 62
     0
370
    -2
100
AcDbLine
 10
488.193543
 20
692.6286331015641
 30
0.0
 11
837.383543
 21
692.6286331015641
 31
0.0
  0
SOLID
  5
470
330
46B
100
AcDbEntity
  8
0
 62
     0
370
    -2
100
AcDbTrace
 10
137.743543
 20
692.5986331015641
 30
0.0
 11
137.743543
 21
692.6586331015641
 31
0.0
 12
137.563543
 22
692.6286331015641
 32
0.0
 13
137.563543
 23
692.6286331015641
 33
0.0
  0
SOLID
  5
471
330
46B
100
AcDbEntity
  8
0
 62
     0
370
    -2
100
AcDbTrace
 10
837.383543
 20
692.6586331015641
 30
0.0
 11
837.383543
 21
692.5986331015641
 31
0.0
 12
837.563543
 22
692.6286331015641
 32
0.0
 13
837.563543
 23
692.6286331015641
 33
0.0
  0
MTEXT
  5
472
330
46B
100
AcDbEntity
  8
0
 62
     0
370
    -2
100
AcDbMText
 10
487.563543
 20
692.6286331015641
 30
0.0
 40
0.18
 41
0.0
 46
0.0
 71
     5
 72
     1
  1
\A1;700.0000
 73
     1
 44
1.0
1001
ACAD
1000
ACAD_MTEXT_DEFINED_HEIGHT_BEGIN
1070
    46
1040
0.0
1000
ACAD_MTEXT_DEFINED_HEIGHT_END
  0
POINT
  5
473
330
46B
100
AcDbEntity
  8
Defpoints
 62
     0
370
    -3
100
AcDbPoint
 10
137.563543
 20
692.603409
 30
0.0
  0
POINT
  5
474
330
46B
100
AcDbEntity
  8
Defpoints
 62
     0
370
    -3
100
AcDbPoint
 10
837.563543
 20
692.603409
 30
0.0
  0
POINT
  5
475
330
46B
100
AcDbEntity
  8
Defpoints
 62
     0
370
    -3
100
AcDbPoint
 10
837.563543
 20
692.6286331015641
 30
0.0
  0
ENDBLK
  5
477
330
46B
100
AcDbEntity
  8
0
100
AcDbBlockEnd
  0
BLOCK
  5
488
330
47D
100
AcDbEntity
  8
0
100
AcDbBlockBegin
  2
*D19
 70
     1
 10
0.0
 20
0.0
 30
0.0
  3
*D19
  1
Acad:XRef
  0
LINE
  5
47E
330
47D
100
AcDbEntity
  8
0
 62
     0
370
    -2
100
AcDbLine
 10
139.501043
 20
692.603409
 30
0.0
 11
79.26090739755732
 21
692.603409
 31
0.0
  0
LINE
  5
47F
330
47D
100
AcDbEntity
  8
0
 62
     0
370
    -2
100
AcDbLine
 10
137.501043
 20
37.540909
 30
0.0
 11
79.2609073975572
 21
37.54090900000001
 31
0.0
  0
LINE
  5
480
330
47D
100
AcDbEntity
  8
0
 62
     0
370
    -2
100
AcDbLine
 10
79.44090739755732
 20
692.4234090000001
 30
0.0
 11
79.44090739755727
 21
365.2521590000001
 31
0.0
  0
LINE
  5
481
330
47D
100
AcDbEntity
  8
0
 62
     0
370
    -2
100
AcDbLine
 10
79.44090739755727
 20
364.892159
 30
0.0
 11
79.44090739755721
 21
37.72090900000001
 31
0.0
  0
SOLID
  5
482
330
47D
100
AcDbEntity
  8
0
 62
     0
370
    -2
100
AcDbTrace
 10
79.41090739755732
 20
692.4234090000001
 30
0.0
 11
79.47090739755733
 21
692.4234090000001
 31
0.0
 12
79.44090739755732
 22
692.603409
 32
0.0
 13
79.44090739755732
 23
692.603409
 33
0.0
  0
SOLID
  5
483
330
47D
100
AcDbEntity
  8
0
 62
     0
370
    -2
100
AcDbTrace
 10
79.47090739755721
 20
37.72090900000001
 30
0.0
 11
79.41090739755721
 21
37.72090900000001
 31
0.0
 12
79.44090739755721
 22
37.54090900000001
 32
0.0
 13
79.44090739755721
 23
37.54090900000001
 33
0.0
  0
MTEXT
  5
484
330
47D
100
AcDbEntity
  8
0
 62
     0
370
    -2
100
AcDbMText
 10
79.44090739755727
 20
365.0721590000001
 30
0.0
 40
0.18
 41
0.0
 46
0.0
 71
     5
 72
     1
  1
\A1;655.0625
 73
     1
 44
1.0
1001
ACAD
1000
ACAD_MTEXT_DEFINED_HEIGHT_BEGIN
1070
    46
1040
0.0
1000
ACAD_MTEXT_DEFINED_HEIGHT_END
  0
POINT
  5
485
330
47D
100
AcDbEntity
  8
Defpoints
 62
     0
370
    -3
100
AcDbPoint
 10
139.563543
 20
692.603409
 30
0.0
  0
POINT
  5
486
330
47D
100
AcDbEntity
  8
Defpoints
 62
     0
370
    -3
100
AcDbPoint
 10
137.563543
 20
37.540909
 30
0.0
  0
POINT
  5
487
330
47D
100
AcDbEntity
  8
Defpoints
 62
     0
370
    -3
100
AcDbPoint
 10
79.44090739755721
 20
37.54090900000001
 30
0.0
  0
ENDBLK
  5
489
330
47D
100
AcDbEntity
  8
0
100
AcDbBlockEnd
  0
BLOCK
  5
499
330
48E
100
AcDbEntity
  8
0
100
AcDbBlockBegin
  2
*D20
 70
     1
 10
0.0
 20
0.0
 30
0.0
  3
*D20
  1
Acad:XRef
  0
LINE
  5
48F
330
48E
100
AcDbEntity
  8
0
 62
     0
370
    -2
100
AcDbLine
 10
139.501043
 20
692.603409
 30
0.0
 11
43.68663029012945
 21
692.603409
 31
0.0
  0
LINE
  5
490
330
48E
100
AcDbEntity
  8
0
 62
     0
370
    -2
100
AcDbLine
 10
139.501043
 20
37.603409
 30
0.0
 11
43.68663029012933
 21
37.60340900000001
 31
0.0
  0
LINE
  5
491
330
48E
100
AcDbEntity
  8
0
 62
     0
370
    -2
100
AcDbLine
 10
43.86663029012945
 20
692.4234090000001
 30
0.0
 11
43.86663029012939
 21
365.2834090000001
 31
0.0
  0
LINE
  5
492
330
48E
100
AcDbEntity
  8
0
 62
     0
370
    -2
100
AcDbLine
 10
43.86663029012939
 20
364.923409
 30
0.0
 11
43.86663029012933
 21
37.78340900000001
 31
0.0
  0
SOLID
  5
493
330
48E
100
AcDbEntity
  8
0
 62
     0
370
    -2
100
AcDbTrace
 10
43.83663029012945
 20
692.4234090000001
 30
0.0
 11
43.89663029012945
 21
692.4234090000001
 31
0.0
 12
43.86663029012945
 22
692.603409
 32
0.0
 13
43.86663029012945
 23
692.603409
 33
0.0
  0
SOLID
  5
494
330
48E
100
AcDbEntity
  8
0
 62
     0
370
    -2
100
AcDbTrace
 10
43.89663029012933
 20
37.78340900000001
 30
0.0
 11
43.83663029012933
 21
37.78340900000001
 31
0.0
 12
43.86663029012933
 22
37.60340900000001
 32
0.0
 13
43.86663029012933
 23
37.60340900000001
 33
0.0
  0
MTEXT
  5
495
330
48E
100
AcDbEntity
  8
0
 62
     0
370
    -2
100
AcDbMText
 10
43.86663029012939
 20
365.1034090000001
 30
0.0
 40
0.18
 41
0.0
 46
0.0
 71
     5
 72
     1
  1
\A1;655.0000
 73
     1
 44
1.0
1001
ACAD
1000
ACAD_MTEXT_DEFINED_HEIGHT_BEGIN
1070
    46
1040
0.0
1000
ACAD_MTEXT_DEFINED_HEIGHT_END
  0
POINT
  5
496
330
48E
100
AcDbEntity
  8
Defpoints
 62
     0
370
    -3
100
AcDbPoint
 10
139.563543
 20
692.603409
 30
0.0
  0
POINT
  5
497
330
48E
100
AcDbEntity
  8
Defpoints
 62
     0
370
    -3
100
AcDbPoint
 10
139.563543
 20
37.603409
 30
0.0
  0
POINT
  5
498
330
48E
100
AcDbEntity
  8
Defpoints
 62
     0
370
    -3
100
AcDbPoint
 10
43.86663029012933
 20
37.60340900000001
 30
0.0
  0
ENDBLK
  5
49A
330
48E
100
AcDbEntity
  8
0
100
AcDbBlockEnd
  0
ENDSEC
  0
SECTION
  2
ENTITIES
  0
LINE
  5
73
330
1F
100
AcDbEntity
  8
1
  6
ByBlock
 62
     8
370
    20
100
AcDbLine
 10
131.213543
 20
31.253409
 30
0.0
 11
131.213543
 21
698.953409
 31
0.0
  0
LINE
  5
75
330
1F
100
AcDbEntity
  8
1
  6
ByBlock
 62
     8
370
    20
100
AcDbLine
 10
843.913543
 20
698.953409
 30
0.0
 11
131.213543
 21
698.953409
 31
0.0
  0
LINE
  5
76
330
1F
100
AcDbEntity
  8
1
  6
ByBlock
 62
     8
370
    20
100
AcDbLine
 10
843.913543
 20
698.953409
 30
0.0
 11
843.913543
 21
31.253409
 31
0.0
  0
LINE
  5
77
330
1F
100
AcDbEntity
  8
1
  6
ByBlock
 62
     8
370
    20
100
AcDbLine
 10
131.213543
 20
31.253409
 30
0.0
 11
843.913543
 21
31.253409
 31
0.0
  0
LINE
  5
78
330
1F
100
AcDbEntity
  8
1
  6
ByBlock
 62
     8
370
    20
100
AcDbLine
 10
131.213543
 20
761.468671
 30
0.0
 11
131.213543
 21
789.168671
 31
0.0
  0
LINE
  5
79
330
1F
100
AcDbEntity
  8
1
  6
ByBlock
 62
     8
370
    20
100
AcDbLine
 10
843.913543
 20
789.168671
 30
0.0
 11
131.213543
 21
789.168671
 31
0.0
  0
LINE
  5
7A
330
1F
100
AcDbEntity
  8
1
  6
ByBlock
 62
     8
370
    20
100
AcDbLine
 10
843.913543
 20
789.168671
 30
0.0
 11
843.913543
 21
761.468671
 31
0.0
  0
LINE
  5
7B
330
1F
100
AcDbEntity
  8
1
  6
ByBlock
 62
     8
370
    20
100
AcDbLine
 10
131.213543
 20
761.468671
 30
0.0
 11
843.913543
 21
761.468671
 31
0.0
  0
LINE
  5
7C
330
1F
100
AcDbEntity
  8
1
  6
Continuous
 62
     8
 60
     1
370
    70
100
AcDbLine
 10
0.0
 20
0.0
 30
0.0
 11
0.0
 21
841.0
 31
0.0
  0
LINE
  5
7D
330
1F
100
AcDbEntity
  8
1
  6
Continuous
 62
     8
 60
     1
370
    70
100
AcDbLine
 10
1189.0
 20
841.0
 30
0.0
 11
0.0
 21
841.0
 31
0.0
  0
LINE
  5
7E
330
1F
100
AcDbEntity
  8
1
  6
Continuous
 62
     8
 60
     1
370
    70
100
AcDbLine
 10
1189.0
 20
841.0
 30
0.0
 11
1189.0
 21
0.0
 31
0.0
  0
LINE
  5
7F
330
1F
100
AcDbEntity
  8
1
  6
Continuous
 62
     8
 60
     1
370
    70
100
AcDbLine
 10
0.0
 20
0.0
 30
0.0
 11
1189.0
 21
0.0
 31
0.0
  0
LINE
  5
80
330
1F
100
AcDbEntity
  8
1
  6
ByBlock
 62
   163
370
    20
100
AcDbLine
 10
834.563543
 20
38.603409
 30
0.0
 11
836.563543
 21
38.603409
 31
0.0
  0
LINE
  5
82
102
{ACAD_REACTORS
330
49C
102
}
330
1F
100
AcDbEntity
  8
1
  6
ByBlock
 62
   163
370
    20
100
AcDbLine
 10
139.563543
 20
692.603409
 30
0.0
 11
137.563543
 21
692.603409
 31
0.0
  0
LINE
  5
83
330
1F
100
AcDbEntity
  8
1
  6
ByBlock
 62
   163
370
    20
100
AcDbLine
 10
836.563543
 20
38.603409
 30
0.0
 11
836.563543
 21
37.603409
 31
0.0
  0
LINE
  5
84
330
1F
100
AcDbEntity
  8
1
  6
ByBlock
 62
   163
370
    20
100
AcDbLine
 10
836.563543
 20
37.603409
 30
0.0
 11
837.563543
 21
37.603409
 31
0.0
  0
LINE
  5
86
330
1F
100
AcDbEntity
  8
1
  6
ByBlock
 62
   163
370
    20
100
AcDbLine
 10
836.563543
 20
40.603409
 30
0.0
 11
836.563543
 21
38.603409
 31
0.0
  0
LINE
  5
88
330
1F
100
AcDbEntity
  8
1
  6
ByBlock
 62
   155
370
    20
100
AcDbLine
 10
358.968863
 20
493.603409
 30
0.0
 11
358.968863
 21
687.603409
 31
0.0
  0
LINE
  5
89
330
1F
100
AcDbEntity
  8
1
  6
ByBlock
 62
   155
370
    20
100
AcDbLine
 10
259.968863
 20
576.006883
 30
0.0
 11
339.393898
 21
493.603409
 31
0.0
  0
LINE
  5
8A
330
1F
100
AcDbEntity
  8
1
  6
ByBlock
 62
     3
370
    20
100
AcDbLine
 10
258.968863
 20
575.603409
 30
0.0
 11
338.968863
 21
492.603409
 31
0.0
  0
LINE
  5
8B
330
1F
100
AcDbEntity
  8
1
  6
ByBlock
 62
   155
370
    20
100
AcDbLine
 10
339.393898
 20
687.603409
 30
0.0
 11
259.968863
 21
605.199935
 31
0.0
  0
LINE
  5
8C
330
1F
100
AcDbEntity
  8
1
  6
ByBlock
 62
     3
370
    20
100
AcDbLine
 10
338.968863
 20
688.603409
 30
0.0
 11
258.968863
 21
605.603409
 31
0.0
  0
LINE
  5
8D
330
1F
100
AcDbEntity
  8
1
  6
ByBlock
 62
   155
370
    20
100
AcDbLine
 10
339.393898
 20
493.603409
 30
0.0
 11
358.968863
 21
493.603409
 31
0.0
  0
LINE
  5
8E
330
1F
100
AcDbEntity
  8
1
  6
ByBlock
 62
   155
370
    20
100
AcDbLine
 10
338.968863
 20
492.603409
 30
0.0
 11
339.393898
 21
493.603409
 31
0.0
  0
LINE
  5
8F
330
1F
100
AcDbEntity
  8
1
  6
ByBlock
 62
     3
370
    20
100
AcDbLine
 10
338.968863
 20
492.603409
 30
0.0
 11
358.968863
 21
492.603409
 31
0.0
  0
LINE
  5
90
330
1F
100
AcDbEntity
  8
1
  6
ByBlock
 62
   155
370
    20
100
AcDbLine
 10
358.968863
 20
493.603409
 30
0.0
 11
358.968863
 21
492.603409
 31
0.0
  0
LINE
  5
91
330
1F
100
AcDbEntity
  8
1
  6
ByBlock
 62
     3
370
    20
100
AcDbLine
 10
358.968863
 20
688.603409
 30
0.0
 11
338.968863
 21
688.603409
 31
0.0
  0
LINE
  5
92
330
1F
100
AcDbEntity
  8
1
  6
ByBlock
 62
   155
370
    20
100
AcDbLine
 10
338.968863
 20
688.603409
 30
0.0
 11
339.393898
 21
687.603409
 31
0.0
  0
LINE
  5
93
330
1F
100
AcDbEntity
  8
1
  6
ByBlock
 62
   155
370
    20
100
AcDbLine
 10
358.968863
 20
687.603409
 30
0.0
 11
339.393898
 21
687.603409
 31
0.0
  0
LINE
  5
94
330
1F
100
AcDbEntity
  8
1
  6
ByBlock
 62
   155
370
    20
100
AcDbLine
 10
358.968863
 20
688.603409
 30
0.0
 11
358.968863
 21
687.603409
 31
0.0
  0
LINE
  5
95
330
1F
100
AcDbEntity
  8
1
  6
ByBlock
 62
   155
370
    20
100
AcDbLine
 10
258.968863
 20
575.603409
 30
0.0
 11
259.968863
 21
576.006883
 31
0.0
  0
LINE
  5
96
330
1F
100
AcDbEntity
  8
1
  6
ByBlock
 62
   155
370
    20
100
AcDbLine
 10
259.968863
 20
605.199935
 30
0.0
 11
259.968863
 21
576.006883
 31
0.0
  0
LINE
  5
97
330
1F
100
AcDbEntity
  8
1
  6
ByBlock
 62
   155
370
    20
100
AcDbLine
 10
258.968863
 20
605.603409
 30
0.0
 11
259.968863
 21
605.199935
 31
0.0
  0
LINE
  5
98
330
1F
100
AcDbEntity
  8
1
  6
ByBlock
 62
     3
370
    20
100
AcDbLine
 10
258.968863
 20
605.603409
 30
0.0
 11
258.968863
 21
575.603409
 31
0.0
  0
LINE
  5
99
330
1F
100
AcDbEntity
  8
1
  6
ByBlock
 62
     3
370
    20
100
AcDbLine
 10
713.162533
 20
688.603409
 30
0.0
 11
713.162533
 21
395.962393
 31
0.0
  0
LINE
  5
9A
330
1F
100
AcDbEntity
  8
1
  6
ByBlock
 62
     3
370
    20
100
AcDbLine
 10
831.162533
 20
40.603409
 30
0.0
 11
833.162533
 21
42.603409
 31
0.0
  0
LINE
  5
9B
330
1F
100
AcDbEntity
  8
1
  6
ByBlock
 62
     3
370
    20
100
AcDbLine
 10
633.162533
 20
42.603409
 30
0.0
 11
635.162533
 21
40.603409
 31
0.0
  0
LINE
  5
9C
330
1F
100
AcDbEntity
  8
1
  6
ByBlock
 62
     3
370
    20
100
AcDbLine
 10
751.162533
 20
690.603409
 30
0.0
 11
715.162533
 21
690.603409
 31
0.0
  0
LINE
  5
9D
330
1F
100
AcDbEntity
  8
1
  6
ByBlock
 62
     3
370
    20
100
AcDbLine
 10
753.162533
 20
688.603409
 30
0.0
 11
751.162533
 21
690.603409
 31
0.0
  0
LINE
  5
9E
330
1F
100
AcDbEntity
  8
1
  6
ByBlock
 62
   155
370
    20
100
AcDbLine
 10
751.162533
 20
690.603409
 30
0.0
 11
750.74832
 21
689.603409
 31
0.0
  0
LINE
  5
9F
330
1F
100
AcDbEntity
  8
1
  6
ByBlock
 62
     3
370
    20
100
AcDbLine
 10
753.162533
 20
395.962393
 30
0.0
 11
753.162534
 21
459.513357
 31
0.0
  0
LINE
  5
A0
330
1F
100
AcDbEntity
  8
1
  6
ByBlock
 62
   155
370
    20
100
AcDbLine
 10
633.162533
 20
42.603409
 30
0.0
 11
634.162533
 21
43.017623
 31
0.0
  0
LINE
  5
A1
330
1F
100
AcDbEntity
  8
1
  6
ByBlock
 62
     3
370
    20
100
AcDbLine
 10
633.162533
 20
252.039344
 30
0.0
 11
633.162533
 21
42.603409
 31
0.0
  0
LINE
  5
A2
330
1F
100
AcDbEntity
  8
1
  6
ByBlock
 62
   155
370
    20
100
AcDbLine
 10
714.162533
 20
395.962393
 30
0.0
 11
713.162533
 21
395.962393
 31
0.0
  0
LINE
  5
A3
330
1F
100
AcDbEntity
  8
1
  6
ByBlock
 62
   155
370
    20
100
AcDbLine
 10
831.162533
 20
40.603409
 30
0.0
 11
830.74832
 21
41.603409
 31
0.0
  0
LINE
  5
A4
330
1F
100
AcDbEntity
  8
1
  6
ByBlock
 62
   155
370
    20
100
AcDbLine
 10
635.162533
 20
40.603409
 30
0.0
 11
635.576747
 21
41.603409
 31
0.0
  0
LINE
  5
A5
330
1F
100
AcDbEntity
  8
1
  6
ByBlock
 62
     3
370
    20
100
AcDbLine
 10
635.162533
 20
40.603409
 30
0.0
 11
831.162533
 21
40.603409
 31
0.0
  0
LINE
  5
A6
330
1F
100
AcDbEntity
  8
1
  6
ByBlock
 62
   155
370
    20
100
AcDbLine
 10
713.162533
 20
688.603409
 30
0.0
 11
714.162533
 21
688.189196
 31
0.0
  0
LINE
  5
A7
330
1F
100
AcDbEntity
  8
1
  6
ByBlock
 62
   155
370
    20
100
AcDbLine
 10
715.162533
 20
690.603409
 30
0.0
 11
715.576747
 21
689.603409
 31
0.0
  0
LINE
  5
A8
330
1F
100
AcDbEntity
  8
1
  6
ByBlock
 62
     3
370
    20
100
AcDbLine
 10
715.162533
 20
690.603409
 30
0.0
 11
713.162533
 21
688.603409
 31
0.0
  0
LINE
  5
A9
330
1F
100
AcDbEntity
  8
1
  6
ByBlock
 62
   155
370
    20
100
AcDbLine
 10
752.162533
 20
395.962393
 30
0.0
 11
753.162533
 21
395.962393
 31
0.0
  0
LINE
  5
AA
330
1F
100
AcDbEntity
  8
1
  6
ByBlock
 62
   155
370
    20
100
AcDbLine
 10
633.162533
 20
252.039344
 30
0.0
 11
634.162533
 21
251.771395
 31
0.0
  0
LINE
  5
AB
330
1F
100
AcDbEntity
  8
1
  6
ByBlock
 62
   155
370
    20
100
AcDbLine
 10
711.349067
 20
385.462393
 30
0.0
 11
710.483042
 21
385.962393
 31
0.0
  0
LINE
  5
AC
330
1F
100
AcDbEntity
  8
1
  6
ByBlock
 62
     3
370
    20
100
AcDbLine
 10
710.483042
 20
385.962393
 30
0.0
 11
633.162533
 21
252.039344
 31
0.0
  0
LINE
  5
AD
330
1F
100
AcDbEntity
  8
1
  6
ByBlock
 62
   155
370
    20
100
AcDbLine
 10
833.162533
 20
42.603409
 30
0.0
 11
832.162533
 21
43.017623
 31
0.0
  0
LINE
  5
AE
330
1F
100
AcDbEntity
  8
1
  6
ByBlock
 62
   155
370
    20
100
AcDbLine
 10
833.162533
 20
252.039344
 30
0.0
 11
832.162533
 21
251.771395
 31
0.0
  0
LINE
  5
AF
330
1F
100
AcDbEntity
  8
1
  6
ByBlock
 62
     3
370
    20
100
AcDbLine
 10
833.162533
 20
252.039344
 30
0.0
 11
755.842025
 21
385.962393
 31
0.0
  0
LINE
  5
B0
330
1F
100
AcDbEntity
  8
1
  6
ByBlock
 62
   155
370
    20
100
AcDbLine
 10
754.976
 20
385.462393
 30
0.0
 11
755.842025
 21
385.962393
 31
0.0
  0
LINE
  5
B1
330
1F
100
AcDbEntity
  8
1
  6
ByBlock
 62
   155
370
    20
100
AcDbLine
 10
634.162533
 20
251.771395
 30
0.0
 11
634.162533
 21
43.017623
 31
0.0
  0
LINE
  5
B2
330
1F
100
AcDbEntity
  8
1
  6
ByBlock
 62
   155
370
    20
100
AcDbLine
 10
634.162533
 20
43.017623
 30
0.0
 11
635.576747
 21
41.603409
 31
0.0
  0
LINE
  5
B3
330
1F
100
AcDbEntity
  8
1
  6
ByBlock
 62
   155
370
    20
100
AcDbLine
 10
635.576747
 20
41.603409
 30
0.0
 11
830.74832
 21
41.603409
 31
0.0
  0
LINE
  5
B4
330
1F
100
AcDbEntity
  8
1
  6
ByBlock
 62
   155
370
    20
100
AcDbLine
 10
830.74832
 20
41.603409
 30
0.0
 11
832.162533
 21
43.017623
 31
0.0
  0
LINE
  5
B5
330
1F
100
AcDbEntity
  8
1
  6
ByBlock
 62
   155
370
    20
100
AcDbLine
 10
832.162533
 20
43.017623
 30
0.0
 11
832.162533
 21
251.771395
 31
0.0
  0
LINE
  5
B6
330
1F
100
AcDbEntity
  8
1
  6
ByBlock
 62
   155
370
    20
100
AcDbLine
 10
832.162533
 20
251.771395
 30
0.0
 11
754.976
 21
385.462393
 31
0.0
  0
LINE
  5
B7
330
1F
100
AcDbEntity
  8
1
  6
ByBlock
 62
   155
370
    20
100
AcDbLine
 10
752.162533
 20
395.962393
 30
0.0
 11
752.162534
 21
459.211835
 31
0.0
  0
LINE
  5
B8
330
1F
100
AcDbEntity
  8
1
  6
ByBlock
 62
   155
370
    20
100
AcDbLine
 10
752.162533
 20
688.189196
 30
0.0
 11
750.74832
 21
689.603409
 31
0.0
  0
LINE
  5
B9
330
1F
100
AcDbEntity
  8
1
  6
ByBlock
 62
   155
370
    20
100
AcDbLine
 10
750.74832
 20
689.603409
 30
0.0
 11
715.576747
 21
689.603409
 31
0.0
  0
LINE
  5
BA
330
1F
100
AcDbEntity
  8
1
  6
ByBlock
 62
   155
370
    20
100
AcDbLine
 10
715.576747
 20
689.603409
 30
0.0
 11
714.162533
 21
688.189196
 31
0.0
  0
LINE
  5
BB
330
1F
100
AcDbEntity
  8
1
  6
ByBlock
 62
   155
370
    20
100
AcDbLine
 10
714.162533
 20
688.189196
 30
0.0
 11
714.162533
 21
395.962393
 31
0.0
  0
LINE
  5
BC
330
1F
100
AcDbEntity
  8
1
  6
ByBlock
 62
   155
370
    20
100
AcDbLine
 10
711.349067
 20
385.462393
 30
0.0
 11
634.162533
 21
251.771395
 31
0.0
  0
LINE
  5
BD
330
1F
100
AcDbEntity
  8
1
  6
ByBlock
 62
   155
370
    20
100
AcDbLine
 10
753.162533
 20
688.603409
 30
0.0
 11
752.162533
 21
688.189196
 31
0.0
  0
LINE
  5
BE
330
1F
100
AcDbEntity
  8
1
  6
ByBlock
 62
   155
370
    20
100
AcDbLine
 10
752.162533
 20
495.994983
 30
0.0
 11
752.162533
 21
688.189196
 31
0.0
  0
LINE
  5
BF
330
1F
100
AcDbEntity
  8
1
  6
ByBlock
 62
     3
370
    20
100
AcDbLine
 10
753.162533
 20
495.693462
 30
0.0
 11
753.162533
 21
688.603409
 31
0.0
  0
LINE
  5
C0
330
1F
100
AcDbEntity
  8
1
  6
ByBlock
 62
   155
370
    20
100
AcDbLine
 10
476.246517
 20
89.161864
 30
0.0
 11
440.323964
 21
166.198026
 31
0.0
  0
LINE
  5
C1
330
1F
100
AcDbEntity
  8
1
  6
ByBlock
 62
     3
370
    20
100
AcDbLine
 10
334.860828
 20
226.730341
 30
0.0
 11
357.864598
 21
177.398598
 31
0.0
  0
LINE
  5
C2
330
1F
100
AcDbEntity
  8
1
  6
ByBlock
 62
     3
370
    20
100
AcDbLine
 10
294.190525
 20
328.441977
 30
0.0
 11
183.076553
 21
366.5415
 31
0.0
  0
LINE
  5
C3
330
1F
100
AcDbEntity
  8
1
  6
ByBlock
 62
   155
370
    20
100
AcDbLine
 10
182.752204
 20
365.595563
 30
0.0
 11
183.076553
 21
366.5415
 31
0.0
  0
LINE
  5
C4
330
1F
100
AcDbEntity
  8
1
  6
ByBlock
 62
     3
370
    20
100
AcDbLine
 10
140.563543
 20
146.603409
 30
0.0
 11
139.563543
 21
147.603409
 31
0.0
  0
LINE
  5
C5
330
1F
100
AcDbEntity
  8
1
  6
ByBlock
 62
   155
370
    20
100
AcDbLine
 10
139.563543
 20
571.388875
 30
0.0
 11
140.563543
 21
572.95856
 31
0.0
  0
LINE
  5
C6
330
1F
100
AcDbEntity
  8
1
  6
ByBlock
 62
   155
370
    20
100
AcDbLine
 10
225.769154
 20
557.692456
 30
0.0
 11
224.862846
 21
557.269838
 31
0.0
  0
LINE
  5
C7
330
1F
100
AcDbEntity
  8
1
  6
ByBlock
 62
     3
370
    20
100
AcDbLine
 10
224.862846
 20
557.269838
 30
0.0
 11
318.803671
 21
355.813089
 31
0.0
  0
LINE
  5
C8
330
1F
100
AcDbEntity
  8
1
  6
ByBlock
 62
   155
370
    20
100
AcDbLine
 10
358.770905
 20
177.821216
 30
0.0
 11
357.864598
 21
177.398598
 31
0.0
  0
LINE
  5
C9
330
1F
100
AcDbEntity
  8
1
  6
ByBlock
 62
   155
370
    20
100
AcDbLine
 10
168.563543
 20
385.460247
 30
0.0
 11
169.563543
 21
385.460247
 31
0.0
  0
LINE
  5
CA
330
1F
100
AcDbEntity
  8
1
  6
ByBlock
 62
     3
370
    20
100
AcDbLine
 10
169.563543
 20
385.460247
 30
0.0
 11
169.563543
 21
540.809502
 31
0.0
  0
LINE
  5
CB
330
1F
100
AcDbEntity
  8
1
  6
ByBlock
 62
   155
370
    20
100
AcDbLine
 10
154.563543
 20
42.603409
 30
0.0
 11
154.563543
 21
140.603409
 31
0.0
  0
LINE
  5
CC
102
{ACAD_REACTORS
330
3B9
102
}
330
1F
100
AcDbEntity
  8
1
  6
ByBlock
 62
   155
370
    20
100
AcDbLine
 10
489.563543
 20
60.603409
 30
0.0
 11
476.246517
 21
89.161864
 31
0.0
  0
LINE
  5
CD
330
1F
100
AcDbEntity
  8
1
  6
ByBlock
 62
   155
370
    20
100
AcDbLine
 10
440.323964
 20
166.198026
 30
0.0
 11
230.921167
 21
615.263775
 31
0.0
  0
LINE
  5
CE
330
1F
100
AcDbEntity
  8
1
  6
ByBlock
 62
   155
370
    20
100
AcDbLine
 10
409.424025
 20
66.829048
 30
0.0
 11
380.263365
 21
129.364285
 31
0.0
  0
LINE
  5
CF
330
1F
100
AcDbEntity
  8
1
  6
ByBlock
 62
   155
370
    20
100
AcDbLine
 10
154.563543
 20
42.603409
 30
0.0
 11
156.563543
 21
40.603409
 31
0.0
  0
LINE
  5
D0
330
1F
100
AcDbEntity
  8
1
  6
ByBlock
 62
     3
370
    20
100
AcDbLine
 10
140.563543
 20
146.603409
 30
0.0
 11
141.563543
 21
145.603409
 31
0.0
  0
LINE
  5
D1
330
1F
100
AcDbEntity
  8
1
  6
ByBlock
 62
     3
370
    20
100
AcDbLine
 10
141.563543
 20
145.603409
 30
0.0
 11
149.563543
 21
145.603409
 31
0.0
  0
LINE
  5
D2
330
1F
100
AcDbEntity
  8
1
  6
ByBlock
 62
   155
370
    20
100
AcDbLine
 10
489.563543
 20
40.603409
 30
0.0
 11
489.563543
 21
60.603409
 31
0.0
  0
LINE
  5
D3
330
1F
100
AcDbEntity
  8
1
  6
ByBlock
 62
   155
370
    20
100
AcDbLine
 10
476.246517
 20
89.161864
 30
0.0
 11
420.055434
 21
62.959532
 31
0.0
  0
LINE
  5
D4
330
1F
100
AcDbEntity
  8
1
  6
ByBlock
 62
   155
370
    20
100
AcDbLine
 10
384.132882
 20
139.995694
 30
0.0
 11
440.323964
 21
166.198026
 31
0.0
  0
LINE
  5
D5
330
1F
100
AcDbEntity
  8
1
  6
ByBlock
 62
   155
370
    20
100
AcDbLine
 10
230.921167
 20
615.263775
 30
0.0
 11
140.718306
 21
573.20149
 31
0.0
  0
LINE
  5
D6
330
1F
100
AcDbEntity
  8
1
  6
ByBlock
 62
   155
370
    20
100
AcDbLine
 10
140.718306
 20
573.20149
 30
0.0
 11
140.563543
 21
572.95856
 31
0.0
  0
LINE
  5
D7
330
1F
100
AcDbEntity
  8
1
  6
ByBlock
 62
   155
370
    20
100
AcDbLine
 10
140.563543
 20
572.95856
 30
0.0
 11
140.563543
 21
146.603409
 31
0.0
  0
LINE
  5
D8
330
1F
100
AcDbEntity
  8
1
  6
ByBlock
 62
   155
370
    20
100
AcDbLine
 10
335.767136
 20
227.152959
 30
0.0
 11
358.770905
 21
177.821216
 31
0.0
  0
LINE
  5
D9
330
1F
100
AcDbEntity
  8
1
  6
ByBlock
 62
   155
370
    20
100
AcDbLine
 10
168.563543
 20
385.460247
 30
0.0
 11
168.563543
 21
540.809502
 31
0.0
  0
LINE
  5
DA
330
1F
100
AcDbEntity
  8
1
  6
ByBlock
 62
   155
370
    20
100
AcDbLine
 10
225.769154
 20
557.692456
 30
0.0
 11
319.709979
 21
356.235707
 31
0.0
  0
LINE
  5
DB
330
1F
100
AcDbEntity
  8
1
  6
ByBlock
 62
   155
370
    20
100
AcDbLine
 10
293.866176
 20
327.49604
 30
0.0
 11
182.752204
 21
365.595563
 31
0.0
  0
LINE
  5
DC
330
1F
100
AcDbEntity
  8
1
  6
ByBlock
 62
     3
370
    20
100
AcDbLine
 10
196.050533
 20
340.949843
 30
0.0
 11
290.761151
 21
308.474815
 31
0.0
  0
LINE
  5
DD
330
1F
100
AcDbEntity
  8
1
  6
ByBlock
 62
   155
370
    20
100
AcDbLine
 10
291.0855
 20
309.420752
 30
0.0
 11
290.761151
 21
308.474815
 31
0.0
  0
LINE
  5
DE
330
1F
100
AcDbEntity
  8
1
  6
ByBlock
 62
   155
370
    20
100
AcDbLine
 10
196.374882
 20
341.89578
 30
0.0
 11
291.0855
 21
309.420752
 31
0.0
  0
LINE
  5
DF
330
1F
100
AcDbEntity
  8
1
  6
ByBlock
 62
   155
370
    20
100
AcDbLine
 10
168.563543
 20
540.809502
 30
0.0
 11
169.563543
 21
540.809502
 31
0.0
  0
LINE
  5
E0
330
1F
100
AcDbEntity
  8
1
  6
ByBlock
 62
   155
370
    20
100
AcDbLine
 10
319.709979
 20
356.235707
 30
0.0
 11
318.803671
 21
355.813089
 31
0.0
  0
LINE
  5
E1
330
1F
100
AcDbEntity
  8
1
  6
ByBlock
 62
   155
370
    20
100
AcDbLine
 10
293.866176
 20
327.49604
 30
0.0
 11
294.190525
 21
328.441977
 31
0.0
  0
LINE
  5
E2
330
1F
100
AcDbEntity
  8
1
  6
ByBlock
 62
   155
370
    20
100
AcDbLine
 10
168.563543
 20
172.028071
 30
0.0
 11
169.563543
 21
172.028071
 31
0.0
  0
LINE
  5
E3
330
1F
100
AcDbEntity
  8
1
  6
ByBlock
 62
     3
370
    20
100
AcDbLine
 10
169.563543
 20
172.028071
 30
0.0
 11
169.563543
 21
322.031097
 31
0.0
  0
LINE
  5
E4
330
1F
100
AcDbEntity
  8
1
  6
ByBlock
 62
   155
370
    20
100
AcDbLine
 10
168.563543
 20
172.028071
 30
0.0
 11
168.563543
 21
322.031097
 31
0.0
  0
LINE
  5
E5
330
1F
100
AcDbEntity
  8
1
  6
ByBlock
 62
   155
370
    20
100
AcDbLine
 10
180.688559
 20
559.841966
 30
0.0
 11
181.111178
 21
558.935658
 31
0.0
  0
LINE
  5
E6
330
1F
100
AcDbEntity
  8
1
  6
ByBlock
 62
     3
370
    20
100
AcDbLine
 10
181.111178
 20
558.935658
 30
0.0
 11
198.284325
 21
566.943628
 31
0.0
  0
LINE
  5
E7
330
1F
100
AcDbEntity
  8
1
  6
ByBlock
 62
   155
370
    20
100
AcDbLine
 10
197.861707
 20
567.849936
 30
0.0
 11
198.284325
 21
566.943628
 31
0.0
  0
LINE
  5
E8
330
1F
100
AcDbEntity
  8
1
  6
ByBlock
 62
   155
370
    20
100
AcDbLine
 10
180.688559
 20
559.841966
 30
0.0
 11
197.861707
 21
567.849936
 31
0.0
  0
LINE
  5
E9
330
1F
100
AcDbEntity
  8
1
  6
ByBlock
 62
   155
370
    20
100
AcDbLine
 10
222.849198
 20
135.241579
 30
0.0
 11
223.627838
 21
134.614108
 31
0.0
  0
LINE
  5
EA
330
1F
100
AcDbEntity
  8
1
  6
ByBlock
 62
     3
370
    20
100
AcDbLine
 10
223.627838
 20
134.614108
 30
0.0
 11
301.161878
 21
230.827402
 31
0.0
  0
LINE
  5
EB
330
1F
100
AcDbEntity
  8
1
  6
ByBlock
 62
   155
370
    20
100
AcDbLine
 10
222.849198
 20
135.241579
 30
0.0
 11
300.383239
 21
231.454873
 31
0.0
  0
LINE
  5
EC
330
1F
100
AcDbEntity
  8
1
  6
ByBlock
 62
   155
370
    20
100
AcDbLine
 10
300.383239
 20
231.454873
 30
0.0
 11
301.161878
 21
230.827402
 31
0.0
  0
LINE
  5
ED
330
1F
100
AcDbEntity
  8
1
  6
ByBlock
 62
   155
370
    20
100
AcDbLine
 10
335.767136
 20
227.152959
 30
0.0
 11
334.860828
 21
226.730341
 31
0.0
  0
LINE
  5
EE
330
1F
100
AcDbEntity
  8
1
  6
ByBlock
 62
   155
370
    20
100
AcDbLine
 10
300.625594
 20
276.379171
 30
0.0
 11
299.846955
 21
277.006642
 31
0.0
  0
LINE
  5
EF
330
1F
100
AcDbEntity
  8
1
  6
ByBlock
 62
     3
370
    20
100
AcDbLine
 10
299.846955
 20
277.006642
 30
0.0
 11
205.136337
 21
159.478645
 31
0.0
  0
LINE
  5
F0
330
1F
100
AcDbEntity
  8
1
  6
ByBlock
 62
   155
370
    20
100
AcDbLine
 10
205.914976
 20
158.851173
 30
0.0
 11
205.136337
 21
159.478645
 31
0.0
  0
LINE
  5
F1
330
1F
100
AcDbEntity
  8
1
  6
ByBlock
 62
   155
370
    20
100
AcDbLine
 10
300.625594
 20
276.379171
 30
0.0
 11
205.914976
 21
158.851173
 31
0.0
  0
LINE
  5
F2
330
1F
100
AcDbEntity
  8
1
  6
ByBlock
 62
   155
370
    20
100
AcDbLine
 10
348.613425
 20
149.913769
 30
0.0
 11
348.190807
 21
150.820077
 31
0.0
  0
LINE
  5
F3
330
1F
100
AcDbEntity
  8
1
  6
ByBlock
 62
     3
370
    20
100
AcDbLine
 10
348.190807
 20
150.820077
 30
0.0
 11
247.652997
 21
103.938526
 31
0.0
  0
LINE
  5
F4
330
1F
100
AcDbEntity
  8
1
  6
ByBlock
 62
   155
370
    20
100
AcDbLine
 10
248.075615
 20
103.032218
 30
0.0
 11
247.652997
 21
103.938526
 31
0.0
  0
LINE
  5
F5
330
1F
100
AcDbEntity
  8
1
  6
ByBlock
 62
   155
370
    20
100
AcDbLine
 10
348.613425
 20
149.913769
 30
0.0
 11
248.075615
 21
103.032218
 31
0.0
  0
LINE
  5
F6
330
1F
100
AcDbEntity
  8
1
  6
ByBlock
 62
   155
370
    20
100
AcDbLine
 10
168.563543
 20
322.031097
 30
0.0
 11
169.563543
 21
322.031097
 31
0.0
  0
LINE
  5
F7
330
1F
100
AcDbEntity
  8
1
  6
ByBlock
 62
   155
370
    20
100
AcDbLine
 10
196.374882
 20
341.89578
 30
0.0
 11
196.050533
 21
340.949843
 31
0.0
  0
LINE
  5
F8
330
1F
100
AcDbEntity
  8
1
  6
ByBlock
 62
     3
370
    20
100
AcDbLine
 10
381.780869
 20
330.603409
 30
0.0
 11
661.780869
 21
330.603409
 31
0.0
  0
LINE
  5
F9
330
1F
100
AcDbEntity
  8
1
  6
ByBlock
 62
   155
370
    20
100
AcDbLine
 10
381.780869
 20
689.603409
 30
0.0
 11
381.780869
 21
690.603409
 31
0.0
  0
LINE
  5
FA
330
1F
100
AcDbEntity
  8
1
  6
ByBlock
 62
   155
370
    20
100
AcDbLine
 10
381.780869
 20
331.603409
 30
0.0
 11
381.780869
 21
330.603409
 31
0.0
  0
LINE
  5
FB
330
1F
100
AcDbEntity
  8
1
  6
ByBlock
 62
   155
370
    20
100
AcDbLine
 10
372.780869
 20
680.603409
 30
0.0
 11
371.780869
 21
680.603409
 31
0.0
  0
LINE
  5
FC
330
1F
100
AcDbEntity
  8
1
  6
ByBlock
 62
     3
370
    20
100
AcDbLine
 10
371.780869
 20
680.603409
 30
0.0
 11
371.780869
 21
340.603409
 31
0.0
  0
LINE
  5
FD
330
1F
100
AcDbEntity
  8
1
  6
ByBlock
 62
   155
370
    20
100
AcDbLine
 10
372.780869
 20
340.603409
 30
0.0
 11
371.780869
 21
340.603409
 31
0.0
  0
LINE
  5
FE
330
1F
100
AcDbEntity
  8
1
  6
ByBlock
 62
   155
370
    20
100
AcDbLine
 10
661.780869
 20
331.603409
 30
0.0
 11
661.780869
 21
330.603409
 31
0.0
  0
LINE
  5
FF
330
1F
100
AcDbEntity
  8
1
  6
ByBlock
 62
   155
370
    20
100
AcDbLine
 10
670.780869
 20
340.603409
 30
0.0
 11
671.780869
 21
340.603409
 31
0.0
  0
LINE
  5
100
330
1F
100
AcDbEntity
  8
1
  6
ByBlock
 62
     3
370
    20
100
AcDbLine
 10
671.780869
 20
340.603409
 30
0.0
 11
671.780869
 21
680.603409
 31
0.0
  0
LINE
  5
101
330
1F
100
AcDbEntity
  8
1
  6
ByBlock
 62
   155
370
    20
100
AcDbLine
 10
670.780869
 20
680.603409
 30
0.0
 11
671.780869
 21
680.603409
 31
0.0
  0
LINE
  5
102
330
1F
100
AcDbEntity
  8
1
  6
ByBlock
 62
   155
370
    20
100
AcDbLine
 10
661.780869
 20
689.603409
 30
0.0
 11
661.780869
 21
690.603409
 31
0.0
  0
LINE
  5
103
330
1F
100
AcDbEntity
  8
1
  6
ByBlock
 62
   155
370
    20
100
AcDbLine
 10
372.780869
 20
680.603409
 30
0.0
 11
372.780869
 21
340.603409
 31
0.0
  0
LINE
  5
104
330
1F
100
AcDbEntity
  8
1
  6
ByBlock
 62
   155
370
    20
100
AcDbLine
 10
381.780869
 20
331.603409
 30
0.0
 11
661.780869
 21
331.603409
 31
0.0
  0
LINE
  5
105
330
1F
100
AcDbEntity
  8
1
  6
ByBlock
 62
   155
370
    20
100
AcDbLine
 10
670.780869
 20
340.603409
 30
0.0
 11
670.780869
 21
680.603409
 31
0.0
  0
LINE
  5
106
330
1F
100
AcDbEntity
  8
1
  6
ByBlock
 62
   155
370
    20
100
AcDbLine
 10
661.780869
 20
689.603409
 30
0.0
 11
381.780869
 21
689.603409
 31
0.0
  0
LINE
  5
107
330
1F
100
AcDbEntity
  8
1
  6
ByBlock
 62
   155
370
    20
100
AcDbLine
 10
534.563543
 20
201.198089
 30
0.0
 11
534.160069
 21
202.198089
 31
0.0
  0
LINE
  5
108
330
1F
100
AcDbEntity
  8
1
  6
ByBlock
 62
   155
370
    20
100
AcDbLine
 10
504.967017
 20
202.198089
 30
0.0
 11
534.160069
 21
202.198089
 31
0.0
  0
LINE
  5
109
330
1F
100
AcDbEntity
  8
1
  6
ByBlock
 62
   155
370
    20
100
AcDbLine
 10
504.563543
 20
201.198089
 30
0.0
 11
504.967017
 21
202.198089
 31
0.0
  0
LINE
  5
10A
330
1F
100
AcDbEntity
  8
1
  6
ByBlock
 62
   155
370
    20
100
AcDbLine
 10
534.160069
 20
202.198089
 30
0.0
 11
616.563543
 21
281.623125
 31
0.0
  0
LINE
  5
10B
330
1F
100
AcDbEntity
  8
1
  6
ByBlock
 62
     3
370
    20
100
AcDbLine
 10
534.563543
 20
201.198089
 30
0.0
 11
617.563543
 21
281.198089
 31
0.0
  0
LINE
  5
10C
330
1F
100
AcDbEntity
  8
1
  6
ByBlock
 62
   155
370
    20
100
AcDbLine
 10
616.563543
 20
281.623125
 30
0.0
 11
616.563543
 21
301.198089
 31
0.0
  0
LINE
  5
10D
330
1F
100
AcDbEntity
  8
1
  6
ByBlock
 62
   155
370
    20
100
AcDbLine
 10
617.563543
 20
281.198089
 30
0.0
 11
616.563543
 21
281.623125
 31
0.0
  0
LINE
  5
10E
330
1F
100
AcDbEntity
  8
1
  6
ByBlock
 62
     3
370
    20
100
AcDbLine
 10
617.563543
 20
281.198089
 30
0.0
 11
617.563543
 21
301.198089
 31
0.0
  0
LINE
  5
10F
330
1F
100
AcDbEntity
  8
1
  6
ByBlock
 62
   155
370
    20
100
AcDbLine
 10
616.563543
 20
301.198089
 30
0.0
 11
617.563543
 21
301.198089
 31
0.0
  0
LINE
  5
110
330
1F
100
AcDbEntity
  8
1
  6
ByBlock
 62
   155
370
    20
100
AcDbLine
 10
422.563543
 20
281.623125
 30
0.0
 11
504.967017
 21
202.198089
 31
0.0
  0
LINE
  5
111
330
1F
100
AcDbEntity
  8
1
  6
ByBlock
 62
     3
370
    20
100
AcDbLine
 10
421.563543
 20
281.198089
 30
0.0
 11
504.563543
 21
201.198089
 31
0.0
  0
LINE
  5
112
330
1F
100
AcDbEntity
  8
1
  6
ByBlock
 62
   155
370
    20
100
AcDbLine
 10
616.563543
 20
301.198089
 30
0.0
 11
422.563543
 21
301.198089
 31
0.0
  0
LINE
  5
113
330
1F
100
AcDbEntity
  8
1
  6
ByBlock
 62
     3
370
    20
100
AcDbLine
 10
421.563543
 20
301.198089
 30
0.0
 11
421.563543
 21
281.198089
 31
0.0
  0
LINE
  5
114
330
1F
100
AcDbEntity
  8
1
  6
ByBlock
 62
   155
370
    20
100
AcDbLine
 10
421.563543
 20
281.198089
 30
0.0
 11
422.563543
 21
281.623125
 31
0.0
  0
LINE
  5
115
330
1F
100
AcDbEntity
  8
1
  6
ByBlock
 62
   155
370
    20
100
AcDbLine
 10
422.563543
 20
301.198089
 30
0.0
 11
422.563543
 21
281.623125
 31
0.0
  0
LINE
  5
116
330
1F
100
AcDbEntity
  8
1
  6
ByBlock
 62
   155
370
    20
100
AcDbLine
 10
421.563543
 20
301.198089
 30
0.0
 11
422.563543
 21
301.198089
 31
0.0
  0
LINE
  5
117
330
1F
100
AcDbEntity
  8
1
  6
ByBlock
 62
   155
370
    20
100
AcDbLine
 10
156.563543
 20
40.603409
 30
0.0
 11
489.563543
 21
40.603409
 31
0.0
  0
LINE
  5
118
102
{ACAD_REACTORS
330
49C
102
}
330
1F
100
AcDbEntity
  8
1
  6
ByBlock
 62
     2
370
    20
100
AcDbLine
 10
837.563543
 20
37.603409
 30
0.0
 11
137.563543
 21
37.603409
 31
0.0
  0
LINE
  5
119
330
1F
100
AcDbEntity
  8
1
  6
ByBlock
 62
     3
370
    20
100
AcDbLine
 10
661.780869
 20
690.603409
 30
0.0
 11
381.780869
 21
690.603409
 31
0.0
  0
LINE
  5
11A
330
1F
100
AcDbEntity
  8
1
  6
ByBlock
 62
     2
370
    20
100
AcDbLine
 10
137.563543
 20
692.603409
 30
0.0
 11
837.563543
 21
692.603409
 31
0.0
  0
LINE
  5
11B
330
1F
100
AcDbEntity
  8
1
  6
ByBlock
 62
     3
370
    20
100
AcDbLine
 10
833.162533
 20
42.603409
 30
0.0
 11
833.162533
 21
252.039344
 31
0.0
  0
LINE
  5
11C
330
1F
100
AcDbEntity
  8
1
  6
ByBlock
 62
     3
370
    20
100
AcDbLine
 10
504.563543
 20
201.198089
 30
0.0
 11
534.563543
 21
201.198089
 31
0.0
  0
LINE
  5
11D
330
1F
100
AcDbEntity
  8
1
  6
ByBlock
 62
     3
370
    20
100
AcDbLine
 10
139.563543
 20
571.388875
 30
0.0
 11
139.563543
 21
147.603409
 31
0.0
  0
LINE
  5
11E
102
{ACAD_REACTORS
330
3ED
102
}
330
1F
100
AcDbEntity
  8
1
  6
ByBlock
 62
     2
370
    20
100
AcDbLine
 10
137.563543
 20
37.603409
 30
0.0
 11
137.563543
 21
692.603409
 31
0.0
  0
LINE
  5
11F
102
{ACAD_REACTORS
330
3ED
102
}
330
1F
100
AcDbEntity
  8
1
  6
ByBlock
 62
     2
370
    20
100
AcDbLine
 10
837.563543
 20
692.603409
 30
0.0
 11
837.563543
 21
37.603409
 31
0.0
  0
LINE
  5
120
330
1F
100
AcDbEntity
  8
1
  6
ByBlock
 62
   163
370
    20
100
AcDbLine
 10
834.563543
 20
767.818671
 30
0.0
 11
836.563543
 21
767.818671
 31
0.0
  0
LINE
  5
121
330
1F
100
AcDbEntity
  8
1
  6
ByBlock
 62
   163
370
    20
100
AcDbLine
 10
139.563543
 20
767.818671
 30
0.0
 11
137.563543
 21
767.818671
 31
0.0
  0
LINE
  5
122
330
1F
100
AcDbEntity
  8
1
  6
ByBlock
 62
   163
370
    20
100
AcDbLine
 10
137.563543
 20
767.818671
 30
0.0
 11
837.563543
 21
767.818671
 31
0.0
  0
LINE
  5
123
330
1F
100
AcDbEntity
  8
1
  6
ByBlock
 62
   163
370
    20
100
AcDbLine
 10
837.563543
 20
767.818671
 30
0.0
 11
137.563543
 21
767.818671
 31
0.0
  0
LINE
  5
124
330
1F
100
AcDbEntity
  8
1
  6
ByBlock
 62
   163
370
    20
100
AcDbLine
 10
836.563543
 20
767.818671
 30
0.0
 11
837.563543
 21
767.818671
 31
0.0
  0
LINE
  5
125
330
1F
100
AcDbEntity
  8
1
  6
ByBlock
 62
   163
370
    20
100
AcDbLine
 10
381.780869
 20
767.818671
 30
0.0
 11
139.563543
 21
767.818671
 31
0.0
  0
LINE
  5
126
330
1F
100
AcDbEntity
  8
1
  6
ByBlock
 62
   155
370
    20
100
AcDbLine
 10
833.162533
 20
781.818671
 30
0.0
 11
832.162533
 21
782.818671
 31
0.0
  0
LINE
  5
127
330
1F
100
AcDbEntity
  8
1
  6
ByBlock
 62
   155
370
    20
100
AcDbLine
 10
830.74832
 20
782.818671
 30
0.0
 11
832.162533
 21
782.818671
 31
0.0
  0
LINE
  5
128
330
1F
100
AcDbEntity
  8
1
  6
ByBlock
 62
   155
370
    20
100
AcDbLine
 10
833.162533
 20
768.818671
 30
0.0
 11
832.162533
 21
767.818671
 31
0.0
  0
LINE
  5
129
330
1F
100
AcDbEntity
  8
1
  6
ByBlock
 62
   155
370
    20
100
AcDbLine
 10
832.162533
 20
767.818671
 30
0.0
 11
830.74832
 21
767.818671
 31
0.0
  0
LINE
  5
12A
330
1F
100
AcDbEntity
  8
1
  6
ByBlock
 62
   155
370
    20
100
AcDbLine
 10
833.162533
 20
768.818671
 30
0.0
 11
831.162533
 21
768.818671
 31
0.0
  0
LINE
  5
12B
330
1F
100
AcDbEntity
  8
1
  6
ByBlock
 62
   155
370
    20
100
AcDbLine
 10
833.162533
 20
781.818671
 30
0.0
 11
833.162533
 21
768.818671
 31
0.0
  0
LINE
  5
12C
330
1F
100
AcDbEntity
  8
1
  6
ByBlock
 62
   155
370
    20
100
AcDbLine
 10
831.162533
 20
781.818671
 30
0.0
 11
833.162533
 21
781.818671
 31
0.0
  0
LINE
  5
12D
330
1F
100
AcDbEntity
  8
1
  6
ByBlock
 62
   155
370
    20
100
AcDbLine
 10
831.162533
 20
781.818671
 30
0.0
 11
830.74832
 21
782.818671
 31
0.0
  0
LINE
  5
12E
330
1F
100
AcDbEntity
  8
1
  6
ByBlock
 62
   155
370
    20
100
AcDbLine
 10
635.576747
 20
782.818671
 30
0.0
 11
830.74832
 21
782.818671
 31
0.0
  0
LINE
  5
12F
330
1F
100
AcDbEntity
  8
1
  6
ByBlock
 62
   155
370
    20
100
AcDbLine
 10
633.162533
 20
781.818671
 30
0.0
 11
634.162533
 21
782.818671
 31
0.0
  0
LINE
  5
130
330
1F
100
AcDbEntity
  8
1
  6
ByBlock
 62
   155
370
    20
100
AcDbLine
 10
635.162533
 20
781.818671
 30
0.0
 11
635.576747
 21
782.818671
 31
0.0
  0
LINE
  5
131
330
1F
100
AcDbEntity
  8
1
  6
ByBlock
 62
   155
370
    20
100
AcDbLine
 10
634.162533
 20
782.818671
 30
0.0
 11
635.576747
 21
782.818671
 31
0.0
  0
LINE
  5
132
330
1F
100
AcDbEntity
  8
1
  6
ByBlock
 62
   155
370
    20
100
AcDbLine
 10
633.162533
 20
781.818671
 30
0.0
 11
633.162533
 21
768.818671
 31
0.0
  0
LINE
  5
133
330
1F
100
AcDbEntity
  8
1
  6
ByBlock
 62
   155
370
    20
100
AcDbLine
 10
633.162533
 20
781.818671
 30
0.0
 11
635.162533
 21
781.818671
 31
0.0
  0
LINE
  5
134
330
1F
100
AcDbEntity
  8
1
  6
ByBlock
 62
   155
370
    20
100
AcDbLine
 10
633.162533
 20
768.818671
 30
0.0
 11
634.162533
 21
767.818671
 31
0.0
  0
LINE
  5
135
330
1F
100
AcDbEntity
  8
1
  6
ByBlock
 62
   155
370
    20
100
AcDbLine
 10
635.576747
 20
767.818671
 30
0.0
 11
634.162533
 21
767.818671
 31
0.0
  0
LINE
  5
136
330
1F
100
AcDbEntity
  8
1
  6
ByBlock
 62
   155
370
    20
100
AcDbLine
 10
635.162533
 20
768.818671
 30
0.0
 11
633.162533
 21
768.818671
 31
0.0
  0
LINE
  5
137
330
1F
100
AcDbEntity
  8
1
  6
ByBlock
 62
   155
370
    20
100
AcDbLine
 10
635.162533
 20
768.818671
 30
0.0
 11
635.576747
 21
767.818671
 31
0.0
  0
LINE
  5
138
330
1F
100
AcDbEntity
  8
1
  6
ByBlock
 62
   155
370
    20
100
AcDbLine
 10
830.74832
 20
767.818671
 30
0.0
 11
635.576747
 21
767.818671
 31
0.0
  0
LINE
  5
139
330
1F
100
AcDbEntity
  8
1
  6
ByBlock
 62
   155
370
    20
100
AcDbLine
 10
831.162533
 20
768.818671
 30
0.0
 11
830.74832
 21
767.818671
 31
0.0
  0
LINE
  5
13A
330
1F
100
AcDbEntity
  8
1
  6
ByBlock
 62
   155
370
    20
100
AcDbLine
 10
635.162533
 20
781.818671
 30
0.0
 11
635.162533
 21
768.818671
 31
0.0
  0
LINE
  5
13B
330
1F
100
AcDbEntity
  8
1
  6
ByBlock
 62
   155
370
    20
100
AcDbLine
 10
831.162533
 20
768.818671
 30
0.0
 11
635.162533
 21
768.818671
 31
0.0
  0
LINE
  5
13C
330
1F
100
AcDbEntity
  8
1
  6
ByBlock
 62
   155
370
    20
100
AcDbLine
 10
831.162533
 20
781.818671
 30
0.0
 11
831.162533
 21
768.818671
 31
0.0
  0
LINE
  5
13D
330
1F
100
AcDbEntity
  8
1
  6
ByBlock
 62
   155
370
    20
100
AcDbLine
 10
635.162533
 20
781.818671
 30
0.0
 11
831.162533
 21
781.818671
 31
0.0
  0
LINE
  5
13E
330
1F
100
AcDbEntity
  8
1
  6
ByBlock
 62
   155
370
    20
100
AcDbLine
 10
141.563543
 20
767.818671
 30
0.0
 11
149.563543
 21
767.818671
 31
0.0
  0
LINE
  5
13F
330
1F
100
AcDbEntity
  8
1
  6
ByBlock
 62
   155
370
    20
100
AcDbLine
 10
141.563543
 20
782.818671
 30
0.0
 11
149.563543
 21
782.818671
 31
0.0
  0
LINE
  5
140
330
1F
100
AcDbEntity
  8
1
  6
ByBlock
 62
   155
370
    20
100
AcDbLine
 10
141.563543
 20
767.818671
 30
0.0
 11
140.563543
 21
767.818671
 31
0.0
  0
LINE
  5
141
330
1F
100
AcDbEntity
  8
1
  6
ByBlock
 62
   155
370
    20
100
AcDbLine
 10
140.563543
 20
782.818671
 30
0.0
 11
141.563543
 21
782.818671
 31
0.0
  0
LINE
  5
142
330
1F
100
AcDbEntity
  8
1
  6
ByBlock
 62
   155
370
    20
100
AcDbLine
 10
139.563543
 20
768.818671
 30
0.0
 11
139.563543
 21
781.818671
 31
0.0
  0
LINE
  5
143
330
1F
100
AcDbEntity
  8
1
  6
ByBlock
 62
   155
370
    20
100
AcDbLine
 10
139.563543
 20
768.818671
 30
0.0
 11
140.563543
 21
767.818671
 31
0.0
  0
LINE
  5
144
330
1F
100
AcDbEntity
  8
1
  6
ByBlock
 62
   155
370
    20
100
AcDbLine
 10
141.563543
 20
767.818671
 30
0.0
 11
141.563543
 21
782.818671
 31
0.0
  0
LINE
  5
145
330
1F
100
AcDbEntity
  8
1
  6
ByBlock
 62
   155
370
    20
100
AcDbLine
 10
140.563543
 20
782.818671
 30
0.0
 11
139.563543
 21
781.818671
 31
0.0
  0
LINE
  5
146
330
1F
100
AcDbEntity
  8
1
  6
ByBlock
 62
   155
370
    20
100
AcDbLine
 10
154.563543
 20
767.818671
 30
0.0
 11
149.563543
 21
767.818671
 31
0.0
  0
LINE
  5
147
330
1F
100
AcDbEntity
  8
1
  6
ByBlock
 62
   155
370
    20
100
AcDbLine
 10
149.563543
 20
782.818671
 30
0.0
 11
154.563543
 21
782.818671
 31
0.0
  0
LINE
  5
148
330
1F
100
AcDbEntity
  8
1
  6
ByBlock
 62
   155
370
    20
100
AcDbLine
 10
149.563543
 20
767.818671
 30
0.0
 11
149.563543
 21
782.818671
 31
0.0
  0
LINE
  5
149
330
1F
100
AcDbEntity
  8
1
  6
ByBlock
 62
   155
370
    20
100
AcDbLine
 10
156.563543
 20
767.818671
 30
0.0
 11
154.563543
 21
767.818671
 31
0.0
  0
LINE
  5
14A
330
1F
100
AcDbEntity
  8
1
  6
ByBlock
 62
   155
370
    20
100
AcDbLine
 10
154.563543
 20
782.818671
 30
0.0
 11
156.563543
 21
782.818671
 31
0.0
  0
LINE
  5
14B
330
1F
100
AcDbEntity
  8
1
  6
ByBlock
 62
   155
370
    20
100
AcDbLine
 10
154.563543
 20
782.818671
 30
0.0
 11
154.563543
 21
767.818671
 31
0.0
  0
LINE
  5
14C
330
1F
100
AcDbEntity
  8
1
  6
ByBlock
 62
   155
370
    20
100
AcDbLine
 10
156.563543
 20
767.818671
 30
0.0
 11
489.563543
 21
767.818671
 31
0.0
  0
LINE
  5
14D
330
1F
100
AcDbEntity
  8
1
  6
ByBlock
 62
   155
370
    20
100
AcDbLine
 10
489.563543
 20
767.818671
 30
0.0
 11
489.563543
 21
782.818671
 31
0.0
  0
LINE
  5
14E
330
1F
100
AcDbEntity
  8
1
  6
ByBlock
 62
   155
370
    20
100
AcDbLine
 10
156.563543
 20
782.818671
 30
0.0
 11
489.563543
 21
782.818671
 31
0.0
  0
LINE
  5
14F
330
1F
100
AcDbEntity
  8
1
  6
ByBlock
 62
   155
370
    20
100
AcDbLine
 10
156.563543
 20
782.818671
 30
0.0
 11
156.563543
 21
767.818671
 31
0.0
  0
LINE
  5
150
330
1F
100
AcDbEntity
  8
1
  6
ByBlock
 62
   155
370
    20
100
AcDbLine
 10
616.560869
 20
782.818671
 30
0.0
 11
634.161494
 21
782.818671
 31
0.0
  0
LINE
  5
151
330
1F
100
AcDbEntity
  8
1
  6
ByBlock
 62
   155
370
    20
100
AcDbLine
 10
617.562744
 20
781.818671
 30
0.0
 11
633.159619
 21
781.818671
 31
0.0
  0
LINE
  5
152
330
1F
100
AcDbEntity
  8
1
  6
ByBlock
 62
   155
370
    20
100
AcDbLine
 10
633.159619
 20
768.818671
 30
0.0
 11
617.562744
 21
768.818671
 31
0.0
  0
LINE
  5
153
330
1F
100
AcDbEntity
  8
1
  6
ByBlock
 62
   155
370
    20
100
AcDbLine
 10
634.161494
 20
767.818671
 30
0.0
 11
616.560869
 21
767.818671
 31
0.0
  0
LINE
  5
154
330
1F
100
AcDbEntity
  8
1
  6
ByBlock
 62
   155
370
    20
100
AcDbLine
 10
617.563543
 20
781.818671
 30
0.0
 11
616.563543
 21
782.818671
 31
0.0
  0
LINE
  5
155
330
1F
100
AcDbEntity
  8
1
  6
ByBlock
 62
   155
370
    20
100
AcDbLine
 10
534.160069
 20
782.818671
 30
0.0
 11
616.563543
 21
782.818671
 31
0.0
  0
LINE
  5
156
330
1F
100
AcDbEntity
  8
1
  6
ByBlock
 62
   155
370
    20
100
AcDbLine
 10
617.563543
 20
768.818671
 30
0.0
 11
616.563543
 21
767.818671
 31
0.0
  0
LINE
  5
157
330
1F
100
AcDbEntity
  8
1
  6
ByBlock
 62
   155
370
    20
100
AcDbLine
 10
616.563543
 20
767.818671
 30
0.0
 11
534.160069
 21
767.818671
 31
0.0
  0
LINE
  5
158
330
1F
100
AcDbEntity
  8
1
  6
ByBlock
 62
   155
370
    20
100
AcDbLine
 10
617.563543
 20
768.818671
 30
0.0
 11
534.563543
 21
768.818671
 31
0.0
  0
LINE
  5
159
330
1F
100
AcDbEntity
  8
1
  6
ByBlock
 62
   155
370
    20
100
AcDbLine
 10
617.563543
 20
768.818671
 30
0.0
 11
617.563543
 21
781.818671
 31
0.0
  0
LINE
  5
15A
330
1F
100
AcDbEntity
  8
1
  6
ByBlock
 62
   155
370
    20
100
AcDbLine
 10
534.563543
 20
781.818671
 30
0.0
 11
617.563543
 21
781.818671
 31
0.0
  0
LINE
  5
15B
330
1F
100
AcDbEntity
  8
1
  6
ByBlock
 62
   155
370
    20
100
AcDbLine
 10
534.563543
 20
781.818671
 30
0.0
 11
534.160069
 21
782.818671
 31
0.0
  0
LINE
  5
15C
330
1F
100
AcDbEntity
  8
1
  6
ByBlock
 62
   155
370
    20
100
AcDbLine
 10
504.967017
 20
782.818671
 30
0.0
 11
534.160069
 21
782.818671
 31
0.0
  0
LINE
  5
15D
330
1F
100
AcDbEntity
  8
1
  6
ByBlock
 62
   155
370
    20
100
AcDbLine
 10
534.563543
 20
768.818671
 30
0.0
 11
534.160069
 21
767.818671
 31
0.0
  0
LINE
  5
15E
330
1F
100
AcDbEntity
  8
1
  6
ByBlock
 62
   155
370
    20
100
AcDbLine
 10
534.160069
 20
767.818671
 30
0.0
 11
504.967017
 21
767.818671
 31
0.0
  0
LINE
  5
15F
330
1F
100
AcDbEntity
  8
1
  6
ByBlock
 62
   155
370
    20
100
AcDbLine
 10
534.563543
 20
768.818671
 30
0.0
 11
504.563543
 21
768.818671
 31
0.0
  0
LINE
  5
160
330
1F
100
AcDbEntity
  8
1
  6
ByBlock
 62
   155
370
    20
100
AcDbLine
 10
534.563543
 20
768.818671
 30
0.0
 11
534.563543
 21
781.818671
 31
0.0
  0
LINE
  5
161
330
1F
100
AcDbEntity
  8
1
  6
ByBlock
 62
   155
370
    20
100
AcDbLine
 10
504.563543
 20
781.818671
 30
0.0
 11
534.563543
 21
781.818671
 31
0.0
  0
LINE
  5
162
330
1F
100
AcDbEntity
  8
1
  6
ByBlock
 62
   155
370
    20
100
AcDbLine
 10
504.563543
 20
781.818671
 30
0.0
 11
504.967017
 21
782.818671
 31
0.0
  0
LINE
  5
163
330
1F
100
AcDbEntity
  8
1
  6
ByBlock
 62
   155
370
    20
100
AcDbLine
 10
489.562717
 20
782.818671
 30
0.0
 11
504.967017
 21
782.818671
 31
0.0
  0
LINE
  5
164
330
1F
100
AcDbEntity
  8
1
  6
ByBlock
 62
   155
370
    20
100
AcDbLine
 10
504.563543
 20
768.818671
 30
0.0
 11
504.967017
 21
767.818671
 31
0.0
  0
LINE
  5
165
330
1F
100
AcDbEntity
  8
1
  6
ByBlock
 62
   155
370
    20
100
AcDbLine
 10
504.967017
 20
767.818671
 30
0.0
 11
489.562717
 21
767.818671
 31
0.0
  0
LINE
  5
166
330
1F
100
AcDbEntity
  8
1
  6
ByBlock
 62
   155
370
    20
100
AcDbLine
 10
504.563543
 20
768.818671
 30
0.0
 11
489.56259
 21
768.818671
 31
0.0
  0
LINE
  5
167
330
1F
100
AcDbEntity
  8
1
  6
ByBlock
 62
   155
370
    20
100
AcDbLine
 10
504.563543
 20
768.818671
 30
0.0
 11
504.563543
 21
781.818671
 31
0.0
  0
LINE
  5
168
330
1F
100
AcDbEntity
  8
1
  6
ByBlock
 62
   155
370
    20
100
AcDbLine
 10
489.56259
 20
781.818671
 30
0.0
 11
504.563543
 21
781.818671
 31
0.0
  0
CIRCLE
  5
169
330
1F
100
AcDbEntity
  8
1
  6
ByBlock
 62
   155
370
    20
100
AcDbCircle
 10
338.968863
 20
590.603409
 30
0.0
 40
3.2
  0
CIRCLE
  5
16A
330
1F
100
AcDbEntity
  8
1
  6
ByBlock
 62
   155
370
    20
100
AcDbCircle
 10
278.968863
 20
590.603409
 30
0.0
 40
3.2
  0
CIRCLE
  5
16B
330
1F
100
AcDbEntity
  8
1
  6
ByBlock
 62
   155
370
    20
100
AcDbCircle
 10
733.162533
 20
410.603409
 30
0.0
 40
3.2
  0
CIRCLE
  5
16C
330
1F
100
AcDbEntity
  8
1
  6
ByBlock
 62
   155
370
    20
100
AcDbCircle
 10
823.162533
 20
71.103409
 30
0.0
 40
3.2
  0
CIRCLE
  5
16D
330
1F
100
AcDbEntity
  8
1
  6
ByBlock
 62
   155
370
    20
100
AcDbCircle
 10
733.162533
 20
660.603409
 30
0.0
 40
3.2
  0
CIRCLE
  5
16E
330
1F
100
AcDbEntity
  8
1
  6
ByBlock
 62
   155
370
    20
100
AcDbCircle
 10
643.162533
 20
71.103409
 30
0.0
 40
3.2
  0
CIRCLE
  5
16F
330
1F
100
AcDbEntity
  8
1
  6
ByBlock
 62
   155
370
    20
100
AcDbCircle
 10
733.162533
 20
160.603409
 30
0.0
 40
3.2
  0
ARC
  5
170
330
1F
100
AcDbEntity
  8
1
  6
ByBlock
 62
     3
370
    20
100
AcDbCircle
 10
693.162533
 20
395.962393
 30
0.0
 40
20.0
100
AcDbArc
 50
330.0
 51
0.0
  0
ARC
  5
171
330
1F
100
AcDbEntity
  8
1
  6
ByBlock
 62
     3
370
    20
100
AcDbCircle
 10
773.162533
 20
395.962393
 30
0.0
 40
20.0
100
AcDbArc
 50
180.0
 51
210.0
  0
ARC
  5
172
330
1F
100
AcDbEntity
  8
1
  6
ByBlock
 62
   155
370
    20
100
AcDbCircle
 10
773.162533
 20
395.962393
 30
0.0
 40
21.0
100
AcDbArc
 50
180.0
 51
210.0
  0
ARC
  5
173
330
1F
100
AcDbEntity
  8
1
  6
ByBlock
 62
   155
370
    20
100
AcDbCircle
 10
693.162533
 20
395.962393
 30
0.0
 40
21.0
100
AcDbArc
 50
330.0
 51
0.0
  0
ARC
  5
174
330
1F
100
AcDbEntity
  8
1
  6
ByBlock
 62
   155
370
    20
100
AcDbCircle
 10
780.162534
 20
477.603409
 30
0.0
 40
33.50000058627
100
AcDbArc
 50
146.701412
 51
213.298587
  0
ARC
  5
175
330
1F
100
AcDbEntity
  8
1
  6
ByBlock
 62
     3
370
    20
100
AcDbCircle
 10
780.162534
 20
477.603409
 30
0.0
 40
32.50000049434
100
AcDbArc
 50
146.177838
 51
213.822161
  0
ARC
  5
176
330
1F
100
AcDbEntity
  8
1
  6
ByBlock
 62
     3
370
    20
100
AcDbCircle
 10
239.200632
 20
122.064682
 30
0.0
 40
20.0
100
AcDbArc
 50
141.136195
 51
295.0
  0
ARC
  5
177
330
1F
100
AcDbEntity
  8
1
  6
ByBlock
 62
     3
370
    20
100
AcDbCircle
 10
206.73669
 20
548.817472
 30
0.0
 40
20.0
100
AcDbArc
 50
25.0
 51
115.0
  0
ARC
  5
178
330
1F
100
AcDbEntity
  8
1
  6
ByBlock
 62
     3
370
    20
100
AcDbCircle
 10
189.563543
 20
385.460247
 30
0.0
 40
20.0
100
AcDbArc
 50
180.0
 51
251.073831
  0
ARC
  5
179
330
1F
100
AcDbEntity
  8
1
  6
ByBlock
 62
     3
370
    20
100
AcDbCircle
 10
284.274161
 20
289.556068
 30
0.0
 40
20.0
100
AcDbArc
 50
321.136195
 51
71.073831
  0
ARC
  5
17A
330
1F
100
AcDbEntity
  8
1
  6
ByBlock
 62
     3
370
    20
100
AcDbCircle
 10
339.738442
 20
168.946233
 30
0.0
 40
20.0
100
AcDbArc
 50
295.0
 51
25.0
  0
ARC
  5
17B
330
1F
100
AcDbEntity
  8
1
  6
ByBlock
 62
   155
370
    20
100
AcDbCircle
 10
416.674488
 20
70.209994
 30
0.0
 40
8.0
100
AcDbArc
 50
205.0
 51
295.0
  0
ARC
  5
17C
330
1F
100
AcDbEntity
  8
1
  6
ByBlock
 62
   155
370
    20
100
AcDbCircle
 10
387.513828
 20
132.745231
 30
0.0
 40
8.0
100
AcDbArc
 50
115.0
 51
205.0
  0
ARC
  5
17D
330
1F
100
AcDbEntity
  8
1
  6
ByBlock
 62
     3
370
    20
100
AcDbCircle
 10
149.563543
 20
140.603409
 30
0.0
 40
5.0
100
AcDbArc
 50
0.0
 51
90.0
  0
ARC
  5
17E
330
1F
100
AcDbEntity
  8
1
  6
ByBlock
 62
   155
370
    20
100
AcDbCircle
 10
284.274161
 20
289.556068
 30
0.0
 40
21.0
100
AcDbArc
 50
321.136195
 51
71.073831
  0
ARC
  5
17F
330
1F
100
AcDbEntity
  8
1
  6
ByBlock
 62
   155
370
    20
100
AcDbCircle
 10
339.738442
 20
168.946233
 30
0.0
 40
21.0
100
AcDbArc
 50
295.0
 51
25.0
  0
ARC
  5
180
330
1F
100
AcDbEntity
  8
1
  6
ByBlock
 62
   155
370
    20
100
AcDbCircle
 10
239.200632
 20
122.064682
 30
0.0
 40
21.0
100
AcDbArc
 50
141.136195
 51
295.0
  0
ARC
  5
181
330
1F
100
AcDbEntity
  8
1
  6
ByBlock
 62
   155
370
    20
100
AcDbCircle
 10
206.73669
 20
548.817472
 30
0.0
 40
21.0
100
AcDbArc
 50
25.0
 51
115.0
  0
ARC
  5
182
330
1F
100
AcDbEntity
  8
1
  6
ByBlock
 62
   155
370
    20
100
AcDbCircle
 10
189.563543
 20
385.460247
 30
0.0
 40
21.0
100
AcDbArc
 50
180.0
 51
251.073831
  0
ARC
  5
183
330
1F
100
AcDbEntity
  8
1
  6
ByBlock
 62
     3
370
    20
100
AcDbCircle
 10
189.563543
 20
172.028071
 30
0.0
 40
20.0
100
AcDbArc
 50
180.0
 51
321.136195
  0
ARC
  5
184
330
1F
100
AcDbEntity
  8
1
  6
ByBlock
 62
   155
370
    20
100
AcDbCircle
 10
189.563543
 20
172.028071
 30
0.0
 40
21.0
100
AcDbArc
 50
180.0
 51
321.136195
  0
ARC
  5
185
330
1F
100
AcDbEntity
  8
1
  6
ByBlock
 62
     3
370
    20
100
AcDbCircle
 10
189.563543
 20
540.809502
 30
0.0
 40
20.0
100
AcDbArc
 50
115.0
 51
180.0
  0
ARC
  5
186
330
1F
100
AcDbEntity
  8
1
  6
ByBlock
 62
   155
370
    20
100
AcDbCircle
 10
189.563543
 20
540.809502
 30
0.0
 40
21.0
100
AcDbArc
 50
115.0
 51
180.0
  0
ARC
  5
187
330
1F
100
AcDbEntity
  8
1
  6
ByBlock
 62
     3
370
    20
100
AcDbCircle
 10
300.677515
 20
347.360724
 30
0.0
 40
20.0
100
AcDbArc
 50
251.073831
 51
25.0
  0
ARC
  5
188
330
1F
100
AcDbEntity
  8
1
  6
ByBlock
 62
   155
370
    20
100
AcDbCircle
 10
300.677515
 20
347.360724
 30
0.0
 40
21.0
100
AcDbArc
 50
251.073831
 51
25.0
  0
ARC
  5
189
330
1F
100
AcDbEntity
  8
1
  6
ByBlock
 62
     3
370
    20
100
AcDbCircle
 10
316.734672
 20
218.277976
 30
0.0
 40
20.0
100
AcDbArc
 50
25.0
 51
141.136195
  0
ARC
  5
18A
330
1F
100
AcDbEntity
  8
1
  6
ByBlock
 62
   155
370
    20
100
AcDbCircle
 10
316.734672
 20
218.277976
 30
0.0
 40
21.0
100
AcDbArc
 50
25.0
 51
141.136195
  0
ARC
  5
18B
330
1F
100
AcDbEntity
  8
1
  6
ByBlock
 62
     3
370
    20
100
AcDbCircle
 10
189.563543
 20
322.031097
 30
0.0
 40
20.0
100
AcDbArc
 50
71.073831
 51
180.0
  0
ARC
  5
18C
330
1F
100
AcDbEntity
  8
1
  6
ByBlock
 62
   155
370
    20
100
AcDbCircle
 10
189.563543
 20
322.031097
 30
0.0
 40
21.0
100
AcDbArc
 50
71.073831
 51
180.0
  0
ARC
  5
18D
330
1F
100
AcDbEntity
  8
1
  6
ByBlock
 62
     3
370
    20
100
AcDbCircle
 10
381.780869
 20
680.603409
 30
0.0
 40
10.0
100
AcDbArc
 50
90.0
 51
180.0
  0
ARC
  5
18E
330
1F
100
AcDbEntity
  8
1
  6
ByBlock
 62
     3
370
    20
100
AcDbCircle
 10
381.780869
 20
340.603409
 30
0.0
 40
10.0
100
AcDbArc
 50
180.0
 51
270.0
  0
ARC
  5
18F
330
1F
100
AcDbEntity
  8
1
  6
ByBlock
 62
     3
370
    20
100
AcDbCircle
 10
661.780869
 20
340.603409
 30
0.0
 40
10.0
100
AcDbArc
 50
270.0
 51
0.0
  0
ARC
  5
190
330
1F
100
AcDbEntity
  8
1
  6
ByBlock
 62
     3
370
    20
100
AcDbCircle
 10
661.780869
 20
680.603409
 30
0.0
 40
10.0
100
AcDbArc
 50
0.0
 51
90.0
  0
ARC
  5
191
330
1F
100
AcDbEntity
  8
1
  6
ByBlock
 62
   155
370
    20
100
AcDbCircle
 10
381.780869
 20
340.603409
 30
0.0
 40
9.000000000000002
100
AcDbArc
 50
180.0
 51
270.0
  0
ARC
  5
192
330
1F
100
AcDbEntity
  8
1
  6
ByBlock
 62
   155
370
    20
100
AcDbCircle
 10
661.780869
 20
340.603409
 30
0.0
 40
9.000000000000002
100
AcDbArc
 50
270.0
 51
0.0
  0
ARC
  5
193
330
1F
100
AcDbEntity
  8
1
  6
ByBlock
 62
   155
370
    20
100
AcDbCircle
 10
661.780869
 20
680.603409
 30
0.0
 40
9.000000000000002
100
AcDbArc
 50
0.0
 51
90.0
  0
ARC
  5
194
330
1F
100
AcDbEntity
  8
1
  6
ByBlock
 62
   155
370
    20
100
AcDbCircle
 10
381.780869
 20
680.603409
 30
0.0
 40
9.000000000000002
100
AcDbArc
 50
90.0
 51
180.0
  0
CIRCLE
  5
195
330
1F
100
AcDbEntity
  8
1
  6
ByBlock
 62
   155
370
    20
100
AcDbCircle
 10
519.563543
 20
221.198089
 30
0.0
 40
3.2
  0
CIRCLE
  5
196
330
1F
100
AcDbEntity
  8
1
  6
ByBlock
 62
   155
370
    20
100
AcDbCircle
 10
519.563543
 20
281.198089
 30
0.0
 40
3.2
  0
CIRCLE
  5
197
330
1F
100
AcDbEntity
  8
1
  6
ByBlock
 62
   155
370
    20
100
AcDbCircle
 10
278.968863
 20
590.603409
 30
0.0
 40
5.5
  0
CIRCLE
  5
198
330
1F
100
AcDbEntity
  8
1
  6
ByBlock
 62
   155
370
    20
100
AcDbCircle
 10
268.968863
 20
590.603409
 30
0.0
 40
3.0
  0
CIRCLE
  5
199
330
1F
100
AcDbEntity
  8
1
  6
ByBlock
 62
   155
370
    20
100
AcDbCircle
 10
348.968863
 20
590.603409
 30
0.0
 40
3.0
  0
CIRCLE
  5
19A
330
1F
100
AcDbEntity
  8
1
  6
ByBlock
 62
   155
370
    20
100
AcDbCircle
 10
338.968863
 20
590.603409
 30
0.0
 40
5.5
  0
CIRCLE
  5
19B
330
1F
100
AcDbEntity
  8
1
  6
ByBlock
 62
   155
370
    20
100
AcDbCircle
 10
733.162533
 20
571.253409
 30
0.0
 40
2.5
  0
CIRCLE
  5
19C
330
1F
100
AcDbEntity
  8
1
  6
ByBlock
 62
   155
370
    20
100
AcDbCircle
 10
733.162533
 20
201.603409
 30
0.0
 40
2.5
  0
CIRCLE
  5
19D
330
1F
100
AcDbEntity
  8
1
  6
ByBlock
 62
   155
370
    20
100
AcDbCircle
 10
723.162533
 20
201.603409
 30
0.0
 40
3.0
  0
CIRCLE
  5
19E
330
1F
100
AcDbEntity
  8
1
  6
ByBlock
 62
   155
370
    20
100
AcDbCircle
 10
743.162533
 20
201.603409
 30
0.0
 40
3.0
  0
CIRCLE
  5
19F
330
1F
100
AcDbEntity
  8
1
  6
ByBlock
 62
   155
370
    20
100
AcDbCircle
 10
823.162533
 20
71.103409
 30
0.0
 40
5.5
  0
CIRCLE
  5
1A0
330
1F
100
AcDbEntity
  8
1
  6
ByBlock
 62
   155
370
    20
100
AcDbCircle
 10
643.162533
 20
71.103409
 30
0.0
 40
5.5
  0
CIRCLE
  5
1A1
330
1F
100
AcDbEntity
  8
1
  6
ByBlock
 62
   155
370
    20
100
AcDbCircle
 10
733.162533
 20
160.603409
 30
0.0
 40
5.5
  0
CIRCLE
  5
1A2
330
1F
100
AcDbEntity
  8
1
  6
ByBlock
 62
   155
370
    20
100
AcDbCircle
 10
733.162533
 20
410.603409
 30
0.0
 40
5.5
  0
CIRCLE
  5
1A3
330
1F
100
AcDbEntity
  8
1
  6
ByBlock
 62
   155
370
    20
100
AcDbCircle
 10
733.162533
 20
660.603409
 30
0.0
 40
5.5
  0
CIRCLE
  5
1A4
330
1F
100
AcDbEntity
  8
1
  6
ByBlock
 62
   155
370
    20
100
AcDbCircle
 10
733.162533
 20
175.603409
 30
0.0
 40
3.0
  0
CIRCLE
  5
1A5
330
1F
100
AcDbEntity
  8
1
  6
ByBlock
 62
   155
370
    20
100
AcDbCircle
 10
733.162533
 20
675.603409
 30
0.0
 40
3.0
  0
CIRCLE
  5
1A6
330
1F
100
AcDbEntity
  8
1
  6
ByBlock
 62
   155
370
    20
100
AcDbCircle
 10
773.379438
 20
215.547681
 30
0.0
 40
2.25
  0
CIRCLE
  5
1A7
330
1F
100
AcDbEntity
  8
1
  6
ByBlock
 62
   155
370
    20
100
AcDbCircle
 10
780.795846
 20
192.722325
 30
0.0
 40
2.25
  0
CIRCLE
  5
1A8
330
1F
100
AcDbEntity
  8
1
  6
ByBlock
 62
   155
370
    20
100
AcDbCircle
 10
765.578941
 20
187.778053
 30
0.0
 40
2.25
  0
CIRCLE
  5
1A9
330
1F
100
AcDbEntity
  8
1
  6
ByBlock
 62
   155
370
    20
100
AcDbCircle
 10
758.162533
 20
210.603409
 30
0.0
 40
2.25
  0
CIRCLE
  5
1AA
330
1F
100
AcDbEntity
  8
1
  6
ByBlock
 62
   155
370
    20
100
AcDbCircle
 10
733.162533
 20
556.253409
 30
0.0
 40
3.0
  0
CIRCLE
  5
1AB
330
1F
100
AcDbEntity
  8
1
  6
ByBlock
 62
   155
370
    20
100
AcDbCircle
 10
733.162533
 20
601.253409
 30
0.0
 40
3.0
  0
CIRCLE
  5
1AC
330
1F
100
AcDbEntity
  8
1
  6
ByBlock
 62
   155
370
    20
100
AcDbCircle
 10
643.162533
 20
90.053409
 30
0.0
 40
3.0
  0
CIRCLE
  5
1AD
330
1F
100
AcDbEntity
  8
1
  6
ByBlock
 62
   155
370
    20
100
AcDbCircle
 10
823.162533
 20
90.053409
 30
0.0
 40
3.0
  0
CIRCLE
  5
1AE
330
1F
100
AcDbEntity
  8
1
  6
ByBlock
 62
   155
370
    20
100
AcDbCircle
 10
717.162533
 20
137.603409
 30
0.0
 40
3.0
  0
CIRCLE
  5
1AF
330
1F
100
AcDbEntity
  8
1
  6
ByBlock
 62
   155
370
    20
100
AcDbCircle
 10
749.162533
 20
137.603409
 30
0.0
 40
3.0
  0
CIRCLE
  5
1B0
330
1F
100
AcDbEntity
  8
1
  6
ByBlock
 62
   155
370
    20
100
AcDbCircle
 10
643.162533
 20
125.053409
 30
0.0
 40
2.5
  0
CIRCLE
  5
1B1
330
1F
100
AcDbEntity
  8
1
  6
ByBlock
 62
   155
370
    20
100
AcDbCircle
 10
643.162533
 20
55.053409
 30
0.0
 40
2.5
  0
CIRCLE
  5
1B2
330
1F
100
AcDbEntity
  8
1
  6
ByBlock
 62
   155
370
    20
100
AcDbCircle
 10
823.162533
 20
125.053409
 30
0.0
 40
2.5
  0
CIRCLE
  5
1B3
330
1F
100
AcDbEntity
  8
1
  6
ByBlock
 62
   155
370
    20
100
AcDbCircle
 10
823.162533
 20
55.053409
 30
0.0
 40
2.5
  0
CIRCLE
  5
1B4
330
1F
100
AcDbEntity
  8
1
  6
ByBlock
 62
   155
370
    20
100
AcDbCircle
 10
733.162533
 20
137.603409
 30
0.0
 40
2.5
  0
CIRCLE
  5
1B5
330
1F
100
AcDbEntity
  8
1
  6
ByBlock
 62
   155
370
    20
100
AcDbCircle
 10
415.932473
 20
140.302785
 30
0.0
 40
3.0
  0
CIRCLE
  5
1B6
330
1F
100
AcDbEntity
  8
1
  6
ByBlock
 62
   155
370
    20
100
AcDbCircle
 10
441.289569
 20
85.924318
 30
0.0
 40
3.0
  0
CIRCLE
  5
1B7
330
1F
100
AcDbEntity
  8
1
  6
ByBlock
 62
   155
370
    20
100
AcDbCircle
 10
423.163413
 20
77.471953
 30
0.0
 40
3.2
  0
CIRCLE
  5
1B8
330
1F
100
AcDbEntity
  8
1
  6
ByBlock
 62
   155
370
    20
100
AcDbCircle
 10
459.415725
 20
94.376683
 30
0.0
 40
3.2
  0
CIRCLE
  5
1B9
330
1F
100
AcDbEntity
  8
1
  6
ByBlock
 62
   155
370
    20
100
AcDbCircle
 10
397.806317
 20
131.85042
 30
0.0
 40
3.2
  0
CIRCLE
  5
1BA
330
1F
100
AcDbEntity
  8
1
  6
ByBlock
 62
   155
370
    20
100
AcDbCircle
 10
434.058629
 20
148.755151
 30
0.0
 40
3.2
  0
CIRCLE
  5
1BB
330
1F
100
AcDbEntity
  8
1
  6
ByBlock
 62
   155
370
    20
100
AcDbCircle
 10
611.780869
 20
338.103409
 30
0.0
 40
3.2
  0
CIRCLE
  5
1BC
330
1F
100
AcDbEntity
  8
1
  6
ByBlock
 62
   155
370
    20
100
AcDbCircle
 10
470.780869
 20
506.583409
 30
0.0
 40
3.0
  0
CIRCLE
  5
1BD
330
1F
100
AcDbEntity
  8
1
  6
ByBlock
 62
   155
370
    20
100
AcDbCircle
 10
494.780869
 20
506.583409
 30
0.0
 40
3.0
  0
CIRCLE
  5
1BE
330
1F
100
AcDbEntity
  8
1
  6
ByBlock
 62
   155
370
    20
100
AcDbCircle
 10
482.780869
 20
506.583409
 30
0.0
 40
2.5
  0
CIRCLE
  5
1BF
330
1F
100
AcDbEntity
  8
1
  6
ByBlock
 62
   155
370
    20
100
AcDbCircle
 10
656.780869
 20
345.603409
 30
0.0
 40
5.25
  0
CIRCLE
  5
1C0
330
1F
100
AcDbEntity
  8
1
  6
ByBlock
 62
   155
370
    20
100
AcDbCircle
 10
386.780869
 20
345.603409
 30
0.0
 40
5.25
  0
CIRCLE
  5
1C1
330
1F
100
AcDbEntity
  8
1
  6
ByBlock
 62
   155
370
    20
100
AcDbCircle
 10
656.780869
 20
675.603409
 30
0.0
 40
5.25
  0
CIRCLE
  5
1C2
330
1F
100
AcDbEntity
  8
1
  6
ByBlock
 62
   155
370
    20
100
AcDbCircle
 10
386.780869
 20
675.603409
 30
0.0
 40
5.25
  0
CIRCLE
  5
1C3
330
1F
100
AcDbEntity
  8
1
  6
ByBlock
 62
   155
370
    20
100
AcDbCircle
 10
521.780869
 20
635.603409
 30
0.0
 40
3.0
  0
CIRCLE
  5
1C4
330
1F
100
AcDbEntity
  8
1
  6
ByBlock
 62
   155
370
    20
100
AcDbCircle
 10
521.780869
 20
390.603409
 30
0.0
 40
3.0
  0
CIRCLE
  5
1C5
330
1F
100
AcDbEntity
  8
1
  6
ByBlock
 62
   155
370
    20
100
AcDbCircle
 10
521.780869
 20
650.603409
 30
0.0
 40
3.2
  0
CIRCLE
  5
1C6
330
1F
100
AcDbEntity
  8
1
  6
ByBlock
 62
   155
370
    20
100
AcDbCircle
 10
521.780869
 20
375.603409
 30
0.0
 40
3.2
  0
CIRCLE
  5
1C7
330
1F
100
AcDbEntity
  8
1
  6
ByBlock
 62
   155
370
    20
100
AcDbCircle
 10
431.780869
 20
338.103409
 30
0.0
 40
3.2
  0
CIRCLE
  5
1C8
330
1F
100
AcDbEntity
  8
1
  6
ByBlock
 62
   155
370
    20
100
AcDbCircle
 10
432.780869
 20
410.603409
 30
0.0
 40
3.0
  0
CIRCLE
  5
1C9
330
1F
100
AcDbEntity
  8
1
  6
ByBlock
 62
   155
370
    20
100
AcDbCircle
 10
462.780869
 20
410.603409
 30
0.0
 40
2.5
  0
CIRCLE
  5
1CA
330
1F
100
AcDbEntity
  8
1
  6
ByBlock
 62
   155
370
    20
100
AcDbCircle
 10
492.780869
 20
410.603409
 30
0.0
 40
3.0
  0
CIRCLE
  5
1CB
330
1F
100
AcDbEntity
  8
1
  6
ByBlock
 62
   155
370
    20
100
AcDbCircle
 10
519.563543
 20
221.198089
 30
0.0
 40
5.5
  0
CIRCLE
  5
1CC
330
1F
100
AcDbEntity
  8
1
  6
ByBlock
 62
   155
370
    20
100
AcDbCircle
 10
519.563543
 20
211.198089
 30
0.0
 40
3.0
  0
CIRCLE
  5
1CD
330
1F
100
AcDbEntity
  8
1
  6
ByBlock
 62
   155
370
    20
100
AcDbCircle
 10
519.563543
 20
291.198089
 30
0.0
 40
3.0
  0
CIRCLE
  5
1CE
330
1F
100
AcDbEntity
  8
1
  6
ByBlock
 62
   155
370
    20
100
AcDbCircle
 10
519.563543
 20
281.198089
 30
0.0
 40
5.5
  0
CIRCLE
  5
1CF
330
1F
100
AcDbEntity
  8
1
  6
ByBlock
 62
   155
370
    20
100
AcDbCircle
 10
184.563543
 20
775.318671
 30
0.0
 40
2.5
  0
CIRCLE
  5
1D0
330
1F
100
AcDbEntity
  8
1
  6
ByBlock
 62
   155
370
    20
100
AcDbCircle
 10
444.563543
 20
775.318671
 30
0.0
 40
3.0
  0
CIRCLE
  5
1D1
330
1F
100
AcDbEntity
  8
1
  6
ByBlock
 62
   155
370
    20
100
AcDbCircle
 10
199.563543
 20
775.318671
 30
0.0
 40
3.0
  0
CIRCLE
  5
1D2
330
1F
100
AcDbEntity
  8
1
  6
ByBlock
 62
   155
370
    20
100
AcDbCircle
 10
459.563543
 20
775.318671
 30
0.0
 40
2.5
  0
SPLINE
  5
1D3
330
1F
100
AcDbEntity
  8
1
  6
ByBlock
 62
   155
370
    20
100
AcDbSpline
210
0.0
220
0.0
230
1.0
 70
     8
 71
     3
 72
     9
 73
     5
 74
     0
 42
0.000000001
 43
0.0000000001
 40
0.0
 40
0.0
 40
0.0
 40
0.0
 40
0.5
 40
1.0
 40
1.0
 40
1.0
 40
1.0
 10
753.1625334831747
 20
495.69346160351
 30
0.0
 10
752.9978494092747
 20
495.74353124291
 30
0.0
 10
752.6664990867247
 20
495.84385729141
 30
0.0
 10
752.3311831789347
 20
495.94454854491
 30
0.0
 10
752.1625334844447
 20
495.99498323381
 30
0.0
  0
SPLINE
  5
1D4
330
1F
100
AcDbEntity
  8
1
  6
ByBlock
 62
   155
370
    20
100
AcDbSpline
210
0.0
220
0.0
230
1.0
 70
     8
 71
     3
 72
     9
 73
     5
 74
     0
 42
0.000000001
 43
0.0000000001
 40
0.0
 40
0.0
 40
0.0
 40
0.0
 40
0.5
 40
1.0
 40
1.0
 40
1.0
 40
1.0
 10
753.1625337329548
 20
459.5133565701099
 30
0.0
 10
752.9979105710448
 20
459.46330545001
 30
0.0
 10
752.6666207169848
 20
459.36299731271
 30
0.0
 10
752.3312444679348
 20
459.2622878223099
 30
0.0
 10
752.1625338173948
 20
459.2118349046099
 30
0.0
  0
LINE
  5
1D5
330
1F
100
AcDbEntity
  8
1
  6
ByBlock
 62
    18
370
    20
100
AcDbLine
 10
459.563543
 20
767.318671
 30
0.0
 11
459.563543
 21
783.318671
 31
0.0
  0
LINE
  5
1D6
330
1F
100
AcDbEntity
  8
1
  6
ByBlock
 62
    18
370
    20
100
AcDbLine
 10
451.563543
 20
775.318671
 30
0.0
 11
467.563543
 21
775.318671
 31
0.0
  0
LINE
  5
1D7
330
1F
100
AcDbEntity
  8
1
  6
ByBlock
 62
    18
370
    20
100
AcDbLine
 10
199.563543
 20
767.318671
 30
0.0
 11
199.563543
 21
783.318671
 31
0.0
  0
LINE
  5
1D8
330
1F
100
AcDbEntity
  8
1
  6
ByBlock
 62
    18
370
    20
100
AcDbLine
 10
191.563543
 20
775.318671
 30
0.0
 11
207.563543
 21
775.318671
 31
0.0
  0
LINE
  5
1D9
330
1F
100
AcDbEntity
  8
1
  6
ByBlock
 62
    18
370
    20
100
AcDbLine
 10
444.563543
 20
767.318671
 30
0.0
 11
444.563543
 21
783.318671
 31
0.0
  0
LINE
  5
1DA
330
1F
100
AcDbEntity
  8
1
  6
ByBlock
 62
    18
370
    20
100
AcDbLine
 10
436.563543
 20
775.318671
 30
0.0
 11
452.563543
 21
775.318671
 31
0.0
  0
LINE
  5
1DB
330
1F
100
AcDbEntity
  8
1
  6
ByBlock
 62
    18
370
    20
100
AcDbLine
 10
184.563543
 20
767.318671
 30
0.0
 11
184.563543
 21
783.318671
 31
0.0
  0
LINE
  5
1DC
330
1F
100
AcDbEntity
  8
1
  6
ByBlock
 62
    18
370
    20
100
AcDbLine
 10
176.563543
 20
775.318671
 30
0.0
 11
192.563543
 21
775.318671
 31
0.0
  0
LINE
  5
1DD
330
1F
100
AcDbEntity
  8
1
  6
ByBlock
 62
    18
370
    20
100
AcDbLine
 10
519.563543
 20
270.698089
 30
0.0
 11
519.563543
 21
291.698089
 31
0.0
  0
LINE
  5
1DE
330
1F
100
AcDbEntity
  8
1
  6
ByBlock
 62
    18
370
    20
100
AcDbLine
 10
509.063543
 20
281.198089
 30
0.0
 11
530.063543
 21
281.198089
 31
0.0
  0
LINE
  5
1DF
330
1F
100
AcDbEntity
  8
1
  6
ByBlock
 62
    18
370
    20
100
AcDbLine
 10
519.563543
 20
283.198089
 30
0.0
 11
519.563543
 21
299.198089
 31
0.0
  0
LINE
  5
1E0
330
1F
100
AcDbEntity
  8
1
  6
ByBlock
 62
    18
370
    20
100
AcDbLine
 10
511.563543
 20
291.198089
 30
0.0
 11
527.563543
 21
291.198089
 31
0.0
  0
LINE
  5
1E1
330
1F
100
AcDbEntity
  8
1
  6
ByBlock
 62
    18
370
    20
100
AcDbLine
 10
519.563543
 20
203.198089
 30
0.0
 11
519.563543
 21
219.198089
 31
0.0
  0
LINE
  5
1E2
330
1F
100
AcDbEntity
  8
1
  6
ByBlock
 62
    18
370
    20
100
AcDbLine
 10
511.563543
 20
211.198089
 30
0.0
 11
527.563543
 21
211.198089
 31
0.0
  0
LINE
  5
1E3
330
1F
100
AcDbEntity
  8
1
  6
ByBlock
 62
    18
370
    20
100
AcDbLine
 10
519.563543
 20
210.698089
 30
0.0
 11
519.563543
 21
231.698089
 31
0.0
  0
LINE
  5
1E4
330
1F
100
AcDbEntity
  8
1
  6
ByBlock
 62
    18
370
    20
100
AcDbLine
 10
509.063543
 20
221.198089
 30
0.0
 11
530.063543
 21
221.198089
 31
0.0
  0
LINE
  5
1E5
330
1F
100
AcDbEntity
  8
1
  6
ByBlock
 62
    18
370
    20
100
AcDbLine
 10
492.780869
 20
402.603409
 30
0.0
 11
492.780869
 21
418.603409
 31
0.0
  0
LINE
  5
1E6
330
1F
100
AcDbEntity
  8
1
  6
ByBlock
 62
    18
370
    20
100
AcDbLine
 10
484.780869
 20
410.603409
 30
0.0
 11
500.780869
 21
410.603409
 31
0.0
  0
LINE
  5
1E7
330
1F
100
AcDbEntity
  8
1
  6
ByBlock
 62
    18
370
    20
100
AcDbLine
 10
462.780869
 20
402.603409
 30
0.0
 11
462.780869
 21
418.603409
 31
0.0
  0
LINE
  5
1E8
330
1F
100
AcDbEntity
  8
1
  6
ByBlock
 62
    18
370
    20
100
AcDbLine
 10
454.780869
 20
410.603409
 30
0.0
 11
470.780869
 21
410.603409
 31
0.0
  0
LINE
  5
1E9
330
1F
100
AcDbEntity
  8
1
  6
ByBlock
 62
    18
370
    20
100
AcDbLine
 10
432.780869
 20
402.603409
 30
0.0
 11
432.780869
 21
418.603409
 31
0.0
  0
LINE
  5
1EA
330
1F
100
AcDbEntity
  8
1
  6
ByBlock
 62
    18
370
    20
100
AcDbLine
 10
424.780869
 20
410.603409
 30
0.0
 11
440.780869
 21
410.603409
 31
0.0
  0
LINE
  5
1EB
330
1F
100
AcDbEntity
  8
1
  6
ByBlock
 62
    18
370
    20
100
AcDbLine
 10
431.780869
 20
329.903409
 30
0.0
 11
431.780869
 21
346.303409
 31
0.0
  0
LINE
  5
1EC
330
1F
100
AcDbEntity
  8
1
  6
ByBlock
 62
    18
370
    20
100
AcDbLine
 10
423.580869
 20
338.103409
 30
0.0
 11
439.980869
 21
338.103409
 31
0.0
  0
LINE
  5
1ED
330
1F
100
AcDbEntity
  8
1
  6
ByBlock
 62
    18
370
    20
100
AcDbLine
 10
521.780869
 20
367.403409
 30
0.0
 11
521.780869
 21
383.803409
 31
0.0
  0
LINE
  5
1EE
330
1F
100
AcDbEntity
  8
1
  6
ByBlock
 62
    18
370
    20
100
AcDbLine
 10
513.580869
 20
375.603409
 30
0.0
 11
529.980869
 21
375.603409
 31
0.0
  0
LINE
  5
1EF
330
1F
100
AcDbEntity
  8
1
  6
ByBlock
 62
    18
370
    20
100
AcDbLine
 10
521.780869
 20
642.403409
 30
0.0
 11
521.780869
 21
658.803409
 31
0.0
  0
LINE
  5
1F0
330
1F
100
AcDbEntity
  8
1
  6
ByBlock
 62
    18
370
    20
100
AcDbLine
 10
513.580869
 20
650.603409
 30
0.0
 11
529.980869
 21
650.603409
 31
0.0
  0
LINE
  5
1F1
330
1F
100
AcDbEntity
  8
1
  6
ByBlock
 62
    18
370
    20
100
AcDbLine
 10
521.780869
 20
382.603409
 30
0.0
 11
521.780869
 21
398.603409
 31
0.0
  0
LINE
  5
1F2
330
1F
100
AcDbEntity
  8
1
  6
ByBlock
 62
    18
370
    20
100
AcDbLine
 10
513.780869
 20
390.603409
 30
0.0
 11
529.780869
 21
390.603409
 31
0.0
  0
LINE
  5
1F3
330
1F
100
AcDbEntity
  8
1
  6
ByBlock
 62
    18
370
    20
100
AcDbLine
 10
521.780869
 20
627.603409
 30
0.0
 11
521.780869
 21
643.603409
 31
0.0
  0
LINE
  5
1F4
330
1F
100
AcDbEntity
  8
1
  6
ByBlock
 62
    18
370
    20
100
AcDbLine
 10
513.780869
 20
635.603409
 30
0.0
 11
529.780869
 21
635.603409
 31
0.0
  0
LINE
  5
1F5
330
1F
100
AcDbEntity
  8
1
  6
ByBlock
 62
    18
370
    20
100
AcDbLine
 10
386.780869
 20
665.353409
 30
0.0
 11
386.780869
 21
685.853409
 31
0.0
  0
LINE
  5
1F6
330
1F
100
AcDbEntity
  8
1
  6
ByBlock
 62
    18
370
    20
100
AcDbLine
 10
376.530869
 20
675.603409
 30
0.0
 11
397.030869
 21
675.603409
 31
0.0
  0
LINE
  5
1F7
330
1F
100
AcDbEntity
  8
1
  6
ByBlock
 62
    18
370
    20
100
AcDbLine
 10
656.780869
 20
665.353409
 30
0.0
 11
656.780869
 21
685.853409
 31
0.0
  0
LINE
  5
1F8
330
1F
100
AcDbEntity
  8
1
  6
ByBlock
 62
    18
370
    20
100
AcDbLine
 10
646.530869
 20
675.603409
 30
0.0
 11
667.030869
 21
675.603409
 31
0.0
  0
LINE
  5
1F9
330
1F
100
AcDbEntity
  8
1
  6
ByBlock
 62
    18
370
    20
100
AcDbLine
 10
386.780869
 20
335.353409
 30
0.0
 11
386.780869
 21
355.853409
 31
0.0
  0
LINE
  5
1FA
330
1F
100
AcDbEntity
  8
1
  6
ByBlock
 62
    18
370
    20
100
AcDbLine
 10
376.530869
 20
345.603409
 30
0.0
 11
397.030869
 21
345.603409
 31
0.0
  0
LINE
  5
1FB
330
1F
100
AcDbEntity
  8
1
  6
ByBlock
 62
    18
370
    20
100
AcDbLine
 10
656.780869
 20
335.353409
 30
0.0
 11
656.780869
 21
355.853409
 31
0.0
  0
LINE
  5
1FC
330
1F
100
AcDbEntity
  8
1
  6
ByBlock
 62
    18
370
    20
100
AcDbLine
 10
646.530869
 20
345.603409
 30
0.0
 11
667.030869
 21
345.603409
 31
0.0
  0
LINE
  5
1FD
330
1F
100
AcDbEntity
  8
1
  6
ByBlock
 62
    18
370
    20
100
AcDbLine
 10
482.780869
 20
498.583409
 30
0.0
 11
482.780869
 21
514.583409
 31
0.0
  0
LINE
  5
1FE
330
1F
100
AcDbEntity
  8
1
  6
ByBlock
 62
    18
370
    20
100
AcDbLine
 10
474.780869
 20
506.583409
 30
0.0
 11
490.780869
 21
506.583409
 31
0.0
  0
LINE
  5
1FF
330
1F
100
AcDbEntity
  8
1
  6
ByBlock
 62
    18
370
    20
100
AcDbLine
 10
494.780869
 20
498.583409
 30
0.0
 11
494.780869
 21
514.583409
 31
0.0
  0
LINE
  5
200
330
1F
100
AcDbEntity
  8
1
  6
ByBlock
 62
    18
370
    20
100
AcDbLine
 10
486.780869
 20
506.583409
 30
0.0
 11
502.780869
 21
506.583409
 31
0.0
  0
LINE
  5
201
330
1F
100
AcDbEntity
  8
1
  6
ByBlock
 62
    18
370
    20
100
AcDbLine
 10
470.780869
 20
498.583409
 30
0.0
 11
470.780869
 21
514.583409
 31
0.0
  0
LINE
  5
202
330
1F
100
AcDbEntity
  8
1
  6
ByBlock
 62
    18
370
    20
100
AcDbLine
 10
462.780869
 20
506.583409
 30
0.0
 11
478.780869
 21
506.583409
 31
0.0
  0
LINE
  5
203
330
1F
100
AcDbEntity
  8
1
  6
ByBlock
 62
    18
370
    20
100
AcDbLine
 10
611.780869
 20
329.903409
 30
0.0
 11
611.780869
 21
346.303409
 31
0.0
  0
LINE
  5
204
330
1F
100
AcDbEntity
  8
1
  6
ByBlock
 62
    18
370
    20
100
AcDbLine
 10
603.580869
 20
338.103409
 30
0.0
 11
619.980869
 21
338.103409
 31
0.0
  0
LINE
  5
205
330
1F
100
AcDbEntity
  8
1
  6
ByBlock
 62
    18
370
    20
100
AcDbLine
 10
434.058629
 20
140.555151
 30
0.0
 11
434.058629
 21
156.955151
 31
0.0
  0
LINE
  5
206
330
1F
100
AcDbEntity
  8
1
  6
ByBlock
 62
    18
370
    20
100
AcDbLine
 10
425.858629
 20
148.755151
 30
0.0
 11
442.258629
 21
148.755151
 31
0.0
  0
LINE
  5
207
330
1F
100
AcDbEntity
  8
1
  6
ByBlock
 62
    18
370
    20
100
AcDbLine
 10
397.806317
 20
123.65042
 30
0.0
 11
397.806317
 21
140.05042
 31
0.0
  0
LINE
  5
208
330
1F
100
AcDbEntity
  8
1
  6
ByBlock
 62
    18
370
    20
100
AcDbLine
 10
389.606317
 20
131.85042
 30
0.0
 11
406.006317
 21
131.85042
 31
0.0
  0
LINE
  5
209
330
1F
100
AcDbEntity
  8
1
  6
ByBlock
 62
    18
370
    20
100
AcDbLine
 10
459.415725
 20
86.176683
 30
0.0
 11
459.415725
 21
102.576683
 31
0.0
  0
LINE
  5
20A
330
1F
100
AcDbEntity
  8
1
  6
ByBlock
 62
    18
370
    20
100
AcDbLine
 10
451.215725
 20
94.376683
 30
0.0
 11
467.615725
 21
94.376683
 31
0.0
  0
LINE
  5
20B
330
1F
100
AcDbEntity
  8
1
  6
ByBlock
 62
    18
370
    20
100
AcDbLine
 10
423.163413
 20
69.271953
 30
0.0
 11
423.163413
 21
85.671953
 31
0.0
  0
LINE
  5
20C
330
1F
100
AcDbEntity
  8
1
  6
ByBlock
 62
    18
370
    20
100
AcDbLine
 10
414.963413
 20
77.471953
 30
0.0
 11
431.363413
 21
77.471953
 31
0.0
  0
LINE
  5
20D
330
1F
100
AcDbEntity
  8
1
  6
ByBlock
 62
    18
370
    20
100
AcDbLine
 10
441.289569
 20
77.924318
 30
0.0
 11
441.289569
 21
93.924318
 31
0.0
  0
LINE
  5
20E
330
1F
100
AcDbEntity
  8
1
  6
ByBlock
 62
    18
370
    20
100
AcDbLine
 10
433.289569
 20
85.924318
 30
0.0
 11
449.289569
 21
85.924318
 31
0.0
  0
LINE
  5
20F
330
1F
100
AcDbEntity
  8
1
  6
ByBlock
 62
    18
370
    20
100
AcDbLine
 10
415.932473
 20
132.302785
 30
0.0
 11
415.932473
 21
148.302785
 31
0.0
  0
LINE
  5
210
330
1F
100
AcDbEntity
  8
1
  6
ByBlock
 62
    18
370
    20
100
AcDbLine
 10
407.932473
 20
140.302785
 30
0.0
 11
423.932473
 21
140.302785
 31
0.0
  0
LINE
  5
211
330
1F
100
AcDbEntity
  8
1
  6
ByBlock
 62
    18
370
    20
100
AcDbLine
 10
733.162533
 20
129.603409
 30
0.0
 11
733.162533
 21
145.603409
 31
0.0
  0
LINE
  5
212
330
1F
100
AcDbEntity
  8
1
  6
ByBlock
 62
    18
370
    20
100
AcDbLine
 10
725.162533
 20
137.603409
 30
0.0
 11
741.162533
 21
137.603409
 31
0.0
  0
LINE
  5
213
330
1F
100
AcDbEntity
  8
1
  6
ByBlock
 62
    18
370
    20
100
AcDbLine
 10
823.162533
 20
47.053409
 30
0.0
 11
823.162533
 21
63.053409
 31
0.0
  0
LINE
  5
214
330
1F
100
AcDbEntity
  8
1
  6
ByBlock
 62
    18
370
    20
100
AcDbLine
 10
815.162533
 20
55.053409
 30
0.0
 11
831.162533
 21
55.053409
 31
0.0
  0
LINE
  5
215
330
1F
100
AcDbEntity
  8
1
  6
ByBlock
 62
    18
370
    20
100
AcDbLine
 10
823.162533
 20
117.053409
 30
0.0
 11
823.162533
 21
133.053409
 31
0.0
  0
LINE
  5
216
330
1F
100
AcDbEntity
  8
1
  6
ByBlock
 62
    18
370
    20
100
AcDbLine
 10
815.162533
 20
125.053409
 30
0.0
 11
831.162533
 21
125.053409
 31
0.0
  0
LINE
  5
217
330
1F
100
AcDbEntity
  8
1
  6
ByBlock
 62
    18
370
    20
100
AcDbLine
 10
643.162533
 20
47.053409
 30
0.0
 11
643.162533
 21
63.053409
 31
0.0
  0
LINE
  5
218
330
1F
100
AcDbEntity
  8
1
  6
ByBlock
 62
    18
370
    20
100
AcDbLine
 10
635.162533
 20
55.053409
 30
0.0
 11
651.162533
 21
55.053409
 31
0.0
  0
LINE
  5
219
330
1F
100
AcDbEntity
  8
1
  6
ByBlock
 62
    18
370
    20
100
AcDbLine
 10
643.162533
 20
117.053409
 30
0.0
 11
643.162533
 21
133.053409
 31
0.0
  0
LINE
  5
21A
330
1F
100
AcDbEntity
  8
1
  6
ByBlock
 62
    18
370
    20
100
AcDbLine
 10
635.162533
 20
125.053409
 30
0.0
 11
651.162533
 21
125.053409
 31
0.0
  0
LINE
  5
21B
330
1F
100
AcDbEntity
  8
1
  6
ByBlock
 62
    18
370
    20
100
AcDbLine
 10
749.162533
 20
129.603409
 30
0.0
 11
749.162533
 21
145.603409
 31
0.0
  0
LINE
  5
21C
330
1F
100
AcDbEntity
  8
1
  6
ByBlock
 62
    18
370
    20
100
AcDbLine
 10
741.162533
 20
137.603409
 30
0.0
 11
757.162533
 21
137.603409
 31
0.0
  0
LINE
  5
21D
330
1F
100
AcDbEntity
  8
1
  6
ByBlock
 62
    18
370
    20
100
AcDbLine
 10
717.162533
 20
129.603409
 30
0.0
 11
717.162533
 21
145.603409
 31
0.0
  0
LINE
  5
21E
330
1F
100
AcDbEntity
  8
1
  6
ByBlock
 62
    18
370
    20
100
AcDbLine
 10
709.162533
 20
137.603409
 30
0.0
 11
725.162533
 21
137.603409
 31
0.0
  0
LINE
  5
21F
330
1F
100
AcDbEntity
  8
1
  6
ByBlock
 62
    18
370
    20
100
AcDbLine
 10
823.162533
 20
82.053409
 30
0.0
 11
823.162533
 21
98.053409
 31
0.0
  0
LINE
  5
220
330
1F
100
AcDbEntity
  8
1
  6
ByBlock
 62
    18
370
    20
100
AcDbLine
 10
815.162533
 20
90.053409
 30
0.0
 11
831.162533
 21
90.053409
 31
0.0
  0
LINE
  5
221
330
1F
100
AcDbEntity
  8
1
  6
ByBlock
 62
    18
370
    20
100
AcDbLine
 10
643.162533
 20
82.053409
 30
0.0
 11
643.162533
 21
98.053409
 31
0.0
  0
LINE
  5
222
330
1F
100
AcDbEntity
  8
1
  6
ByBlock
 62
    18
370
    20
100
AcDbLine
 10
635.162533
 20
90.053409
 30
0.0
 11
651.162533
 21
90.053409
 31
0.0
  0
LINE
  5
223
330
1F
100
AcDbEntity
  8
1
  6
ByBlock
 62
    18
370
    20
100
AcDbLine
 10
733.162533
 20
593.253409
 30
0.0
 11
733.162533
 21
609.253409
 31
0.0
  0
LINE
  5
224
330
1F
100
AcDbEntity
  8
1
  6
ByBlock
 62
    18
370
    20
100
AcDbLine
 10
725.162533
 20
601.253409
 30
0.0
 11
741.162533
 21
601.253409
 31
0.0
  0
LINE
  5
225
330
1F
100
AcDbEntity
  8
1
  6
ByBlock
 62
    18
370
    20
100
AcDbLine
 10
733.162533
 20
548.253409
 30
0.0
 11
733.162533
 21
564.253409
 31
0.0
  0
LINE
  5
226
330
1F
100
AcDbEntity
  8
1
  6
ByBlock
 62
    18
370
    20
100
AcDbLine
 10
725.162533
 20
556.253409
 30
0.0
 11
741.162533
 21
556.253409
 31
0.0
  0
LINE
  5
227
330
1F
100
AcDbEntity
  8
1
  6
ByBlock
 62
    18
370
    20
100
AcDbLine
 10
758.162533
 20
202.603409
 30
0.0
 11
758.162533
 21
218.603409
 31
0.0
  0
LINE
  5
228
330
1F
100
AcDbEntity
  8
1
  6
ByBlock
 62
    18
370
    20
100
AcDbLine
 10
750.162533
 20
210.603409
 30
0.0
 11
766.162533
 21
210.603409
 31
0.0
  0
LINE
  5
229
330
1F
100
AcDbEntity
  8
1
  6
ByBlock
 62
    18
370
    20
100
AcDbLine
 10
765.578941
 20
179.778053
 30
0.0
 11
765.578941
 21
195.778053
 31
0.0
  0
LINE
  5
22A
330
1F
100
AcDbEntity
  8
1
  6
ByBlock
 62
    18
370
    20
100
AcDbLine
 10
757.578941
 20
187.778053
 30
0.0
 11
773.578941
 21
187.778053
 31
0.0
  0
LINE
  5
22B
330
1F
100
AcDbEntity
  8
1
  6
ByBlock
 62
    18
370
    20
100
AcDbLine
 10
780.795846
 20
184.722325
 30
0.0
 11
780.795846
 21
200.722325
 31
0.0
  0
LINE
  5
22C
330
1F
100
AcDbEntity
  8
1
  6
ByBlock
 62
    18
370
    20
100
AcDbLine
 10
772.795846
 20
192.722325
 30
0.0
 11
788.795846
 21
192.722325
 31
0.0
  0
LINE
  5
22D
330
1F
100
AcDbEntity
  8
1
  6
ByBlock
 62
    18
370
    20
100
AcDbLine
 10
773.379438
 20
207.547681
 30
0.0
 11
773.379438
 21
223.547681
 31
0.0
  0
LINE
  5
22E
330
1F
100
AcDbEntity
  8
1
  6
ByBlock
 62
    18
370
    20
100
AcDbLine
 10
765.379438
 20
215.547681
 30
0.0
 11
781.379438
 21
215.547681
 31
0.0
  0
LINE
  5
22F
330
1F
100
AcDbEntity
  8
1
  6
ByBlock
 62
    18
370
    20
100
AcDbLine
 10
733.162533
 20
667.603409
 30
0.0
 11
733.162533
 21
683.603409
 31
0.0
  0
LINE
  5
230
330
1F
100
AcDbEntity
  8
1
  6
ByBlock
 62
    18
370
    20
100
AcDbLine
 10
725.162533
 20
675.603409
 30
0.0
 11
741.162533
 21
675.603409
 31
0.0
  0
LINE
  5
231
330
1F
100
AcDbEntity
  8
1
  6
ByBlock
 62
    18
370
    20
100
AcDbLine
 10
733.162533
 20
167.603409
 30
0.0
 11
733.162533
 21
183.603409
 31
0.0
  0
LINE
  5
232
330
1F
100
AcDbEntity
  8
1
  6
ByBlock
 62
    18
370
    20
100
AcDbLine
 10
725.162533
 20
175.603409
 30
0.0
 11
741.162533
 21
175.603409
 31
0.0
  0
LINE
  5
233
330
1F
100
AcDbEntity
  8
1
  6
ByBlock
 62
    18
370
    20
100
AcDbLine
 10
733.162533
 20
650.103409
 30
0.0
 11
733.162533
 21
671.103409
 31
0.0
  0
LINE
  5
234
330
1F
100
AcDbEntity
  8
1
  6
ByBlock
 62
    18
370
    20
100
AcDbLine
 10
722.662533
 20
660.603409
 30
0.0
 11
743.662533
 21
660.603409
 31
0.0
  0
LINE
  5
235
330
1F
100
AcDbEntity
  8
1
  6
ByBlock
 62
    18
370
    20
100
AcDbLine
 10
733.162533
 20
400.103409
 30
0.0
 11
733.162533
 21
421.103409
 31
0.0
  0
LINE
  5
236
330
1F
100
AcDbEntity
  8
1
  6
ByBlock
 62
    18
370
    20
100
AcDbLine
 10
722.662533
 20
410.603409
 30
0.0
 11
743.662533
 21
410.603409
 31
0.0
  0
LINE
  5
237
330
1F
100
AcDbEntity
  8
1
  6
ByBlock
 62
    18
370
    20
100
AcDbLine
 10
733.162533
 20
150.103409
 30
0.0
 11
733.162533
 21
171.103409
 31
0.0
  0
LINE
  5
238
330
1F
100
AcDbEntity
  8
1
  6
ByBlock
 62
    18
370
    20
100
AcDbLine
 10
722.662533
 20
160.603409
 30
0.0
 11
743.662533
 21
160.603409
 31
0.0
  0
LINE
  5
239
330
1F
100
AcDbEntity
  8
1
  6
ByBlock
 62
    18
370
    20
100
AcDbLine
 10
643.162533
 20
60.603409
 30
0.0
 11
643.162533
 21
81.603409
 31
0.0
  0
LINE
  5
23A
330
1F
100
AcDbEntity
  8
1
  6
ByBlock
 62
    18
370
    20
100
AcDbLine
 10
632.662533
 20
71.103409
 30
0.0
 11
653.662533
 21
71.103409
 31
0.0
  0
LINE
  5
23B
330
1F
100
AcDbEntity
  8
1
  6
ByBlock
 62
    18
370
    20
100
AcDbLine
 10
823.162533
 20
60.603409
 30
0.0
 11
823.162533
 21
81.603409
 31
0.0
  0
LINE
  5
23C
330
1F
100
AcDbEntity
  8
1
  6
ByBlock
 62
    18
370
    20
100
AcDbLine
 10
812.662533
 20
71.103409
 30
0.0
 11
833.662533
 21
71.103409
 31
0.0
  0
LINE
  5
23D
330
1F
100
AcDbEntity
  8
1
  6
ByBlock
 62
    18
370
    20
100
AcDbLine
 10
743.162533
 20
193.603409
 30
0.0
 11
743.162533
 21
209.603409
 31
0.0
  0
LINE
  5
23E
330
1F
100
AcDbEntity
  8
1
  6
ByBlock
 62
    18
370
    20
100
AcDbLine
 10
735.162533
 20
201.603409
 30
0.0
 11
751.162533
 21
201.603409
 31
0.0
  0
LINE
  5
23F
330
1F
100
AcDbEntity
  8
1
  6
ByBlock
 62
    18
370
    20
100
AcDbLine
 10
723.162533
 20
193.603409
 30
0.0
 11
723.162533
 21
209.603409
 31
0.0
  0
LINE
  5
240
330
1F
100
AcDbEntity
  8
1
  6
ByBlock
 62
    18
370
    20
100
AcDbLine
 10
715.162533
 20
201.603409
 30
0.0
 11
731.162533
 21
201.603409
 31
0.0
  0
LINE
  5
241
330
1F
100
AcDbEntity
  8
1
  6
ByBlock
 62
    18
370
    20
100
AcDbLine
 10
733.162533
 20
193.603409
 30
0.0
 11
733.162533
 21
209.603409
 31
0.0
  0
LINE
  5
242
330
1F
100
AcDbEntity
  8
1
  6
ByBlock
 62
    18
370
    20
100
AcDbLine
 10
725.162533
 20
201.603409
 30
0.0
 11
741.162533
 21
201.603409
 31
0.0
  0
LINE
  5
243
330
1F
100
AcDbEntity
  8
1
  6
ByBlock
 62
    18
370
    20
100
AcDbLine
 10
733.162533
 20
563.253409
 30
0.0
 11
733.162533
 21
579.253409
 31
0.0
  0
LINE
  5
244
330
1F
100
AcDbEntity
  8
1
  6
ByBlock
 62
    18
370
    20
100
AcDbLine
 10
725.162533
 20
571.253409
 30
0.0
 11
741.162533
 21
571.253409
 31
0.0
  0
LINE
  5
245
330
1F
100
AcDbEntity
  8
1
  6
ByBlock
 62
    18
370
    20
100
AcDbLine
 10
338.968863
 20
580.103409
 30
0.0
 11
338.968863
 21
601.103409
 31
0.0
  0
LINE
  5
246
330
1F
100
AcDbEntity
  8
1
  6
ByBlock
 62
    18
370
    20
100
AcDbLine
 10
328.468863
 20
590.603409
 30
0.0
 11
349.468863
 21
590.603409
 31
0.0
  0
LINE
  5
247
330
1F
100
AcDbEntity
  8
1
  6
ByBlock
 62
    18
370
    20
100
AcDbLine
 10
348.968863
 20
582.603409
 30
0.0
 11
348.968863
 21
598.603409
 31
0.0
  0
LINE
  5
248
330
1F
100
AcDbEntity
  8
1
  6
ByBlock
 62
    18
370
    20
100
AcDbLine
 10
340.968863
 20
590.603409
 30
0.0
 11
356.968863
 21
590.603409
 31
0.0
  0
LINE
  5
249
330
1F
100
AcDbEntity
  8
1
  6
ByBlock
 62
    18
370
    20
100
AcDbLine
 10
268.968863
 20
582.603409
 30
0.0
 11
268.968863
 21
598.603409
 31
0.0
  0
LINE
  5
24A
330
1F
100
AcDbEntity
  8
1
  6
ByBlock
 62
    18
370
    20
100
AcDbLine
 10
260.968863
 20
590.603409
 30
0.0
 11
276.968863
 21
590.603409
 31
0.0
  0
LINE
  5
24B
330
1F
100
AcDbEntity
  8
1
  6
ByBlock
 62
    18
370
    20
100
AcDbLine
 10
278.968863
 20
580.103409
 30
0.0
 11
278.968863
 21
601.103409
 31
0.0
  0
LINE
  5
24C
330
1F
100
AcDbEntity
  8
1
  6
ByBlock
 62
    18
370
    20
100
AcDbLine
 10
268.468863
 20
590.603409
 30
0.0
 11
289.468863
 21
590.603409
 31
0.0
  0
LINE
  5
384
330
1F
100
AcDbEntity
  8
0
  6
ByBlock
 62
     3
370
    20
100
AcDbLine
 10
230.0879489227454
 20
617.0727307613497
 30
0.0
 11
231.9005644968187
 21
617.9179672848311
 31
0.0
  0
LINE
  5
3A7
102
{ACAD_REACTORS
330
3B9
102
}
330
1F
100
AcDbEntity
  8
0
  6
ByBlock
370
    20
100
AcDbLine
 10
489.563543
 20
60.603409
 30
0.0
 11
491.3761585740733
 21
61.4486455234814
 31
0.0
  0
LINE
  5
3A8
330
1F
100
AcDbEntity
  8
0
  6
ByBlock
 62
     3
370
    20
100
AcDbLine
 10
491.3761585740733
 20
61.4486455234814
 30
0.0
 11
231.8920941291713
 21
617.9140174875297
 31
0.0
  0
DIMENSION
  5
3AA
102
{ACAD_REACTORS
330
3B9
102
}
102
{ACAD_XDICTIONARY
360
3B8
102
}
330
1F
100
AcDbEntity
  8
0
  6
ByBlock
370
    20
100
AcDbDimension
280
     0
  2
*D15
 10
476.246517
 20
89.161864
 30
0.0
 11
489.9734853869875
 21
61.72971643783909
 31
0.0
 70
    34
 71
     5
 42
1.570796318983898
 73
     0
 74
     0
 75
     0
  3
Standard
100
AcDb2LineAngularDimension
 13
489.563543
 23
60.603409
 33
0.0
 14
491.3761585740733
 24
61.4486455234814
 34
0.0
 15
489.563543
 25
60.603409
 35
0.0
 16
490.2510267531571
 26
61.58523754629807
 36
0.0
  0
LINE
  5
3BB
330
1F
100
AcDbEntity
  8
0
  6
ByBlock
 62
     3
370
    20
100
AcDbLine
 10
491.3761585740733
 20
61.4486455234814
 30
0.0
 11
491.3761585740733
 21
38.603409
 31
0.0
  0
LINE
  5
3BC
330
1F
100
AcDbEntity
  8
0
  6
ByBlock
370
    20
100
AcDbLine
 10
489.563543
 20
40.603409
 30
0.0
 11
489.563543
 21
38.603409
 31
0.0
  0
LINE
  5
3BD
330
1F
100
AcDbEntity
  8
0
  6
ByBlock
 62
     3
370
    20
100
AcDbLine
 10
489.563543
 20
38.603409
 30
0.0
 11
152.563543
 21
38.60340900000004
 31
0.0
  0
LINE
  5
3BE
330
1F
100
AcDbEntity
  8
0
  6
ByBlock
 62
     3
370
    20
100
AcDbLine
 10
489.563543
 20
38.603409
 30
0.0
 11
491.3761585740733
 21
38.603409
 31
0.0
  0
LINE
  5
3BF
330
1F
100
AcDbEntity
  8
0
  6
ByBlock
370
    20
100
AcDbLine
 10
154.563543
 20
140.603409
 30
0.0
 11
152.563543
 21
140.603409
 31
0.0
  0
LINE
  5
3C0
330
1F
100
AcDbEntity
  8
0
  6
ByBlock
 62
     3
370
    20
100
AcDbLine
 10
152.563543
 20
140.603409
 30
0.0
 11
152.563543
 21
38.603409
 31
0.0
  0
LINE
  5
3C1
330
1F
100
AcDbEntity
  8
0
  6
ByBlock
 62
     3
370
    20
100
AcDbLine
 10
152.563543
 20
140.603409
 30
0.0
 11
152.563543
 21
144.603409
 31
0.0
  0
LINE
  5
3C2
102
{ACAD_REACTORS
330
3D5
102
}
330
1F
100
AcDbEntity
  8
0
  6
ByBlock
370
    20
100
AcDbLine
 10
140.718306
 20
573.20149
 30
0.0
 11
139.8730694765186
 21
575.0141055740734
 31
0.0
  0
LINE
  5
3C3
102
{ACAD_REACTORS
330
3D5
102
}
330
1F
100
AcDbEntity
  8
0
  6
ByBlock
 62
     3
370
    20
100
AcDbLine
 10
139.8730694765186
 20
575.0141055740734
 30
0.0
 11
230.0879489227454
 21
617.0727307613497
 31
0.0
  0
LINE
  5
3C4
330
1F
100
AcDbEntity
  8
0
  6
ByBlock
 62
     3
370
    20
100
AcDbLine
 10
139.8730694765186
 20
575.0141055740734
 30
0.0
 11
139.5635430000001
 21
574.869771007671
 31
0.0
  0
DIMENSION
  5
3C6
102
{ACAD_REACTORS
330
3D5
102
}
102
{ACAD_XDICTIONARY
360
3D4
102
}
330
1F
100
AcDbEntity
  8
0
  6
ByBlock
370
    20
100
AcDbDimension
280
     0
  2
*D16
 10
139.8730694765186
 20
575.0141055740734
 30
0.0
 11
140.907026947377
 21
574.6377264461265
 31
0.0
 70
    34
 71
     5
 42
1.570711976258812
 73
     0
 74
     0
 75
     0
  3
Standard
100
AcDb2LineAngularDimension
 13
139.8730694765186
 23
575.0141055740734
 33
0.0
 14
230.0879489227454
 24
617.0727307613497
 34
0.0
 15
140.718306
 25
573.20149
 35
0.0
 16
140.7743904874696
 26
574.3829560397186
 36
0.0
  0
LINE
  5
3D6
330
1F
100
AcDbEntity
  8
0
  6
ByBlock
 62
     3
370
    20
100
AcDbLine
 10
358.968863
 20
688.603409
 30
0.0
 11
360.968863
 21
688.603409
 31
0.0
  0
LINE
  5
3D7
330
1F
100
AcDbEntity
  8
0
  6
ByBlock
 62
     3
370
    20
100
AcDbLine
 10
358.968863
 20
492.603409
 30
0.0
 11
360.968863
 21
492.603409
 31
0.0
  0
LINE
  5
3D8
330
1F
100
AcDbEntity
  8
0
  6
ByBlock
 62
     3
370
    20
100
AcDbLine
 10
360.968863
 20
492.603409
 30
0.0
 11
360.968863
 21
688.603409
 31
0.0
  0
LINE
  5
3D9
330
1F
100
AcDbEntity
  8
0
  6
ByBlock
 62
     3
370
    20
100
AcDbLine
 10
421.563543
 20
301.198089
 30
0.0
 11
421.563543
 21
303.198089
 31
0.0
  0
LINE
  5
3DA
330
1F
100
AcDbEntity
  8
0
  6
ByBlock
 62
     3
370
    20
100
AcDbLine
 10
617.563543
 20
301.198089
 30
0.0
 11
617.563543
 21
303.198089
 31
0.0
  0
LINE
  5
3DB
330
1F
100
AcDbEntity
  8
0
  6
ByBlock
 62
     3
370
    20
100
AcDbLine
 10
617.563543
 20
303.198089
 30
0.0
 11
421.563543
 21
303.198089
 31
0.0
  0
LINE
  5
3DC
330
1F
100
AcDbEntity
  8
0
  6
ByBlock
 62
     3
370
    20
100
AcDbLine
 10
139.5635430000001
 20
574.869771007671
 30
0.0
 11
139.563543
 21
571.388875
 31
0.0
  0
DIMENSION
  5
3DE
102
{ACAD_REACTORS
330
3ED
102
}
102
{ACAD_XDICTIONARY
360
3EC
102
}
330
1F
100
AcDbEntity
  8
0
370
    70
100
AcDbDimension
280
     0
  2
*D17
 10
837.563543
 20
0.3615196537840662
 30
0.0
 11
487.563543
 21
0.3615196537840662
 31
0.0
 70
    32
 71
     5
 42
700.0
 73
     0
 74
     0
 75
     0
  3
Standard
100
AcDbAlignedDimension
 13
137.563543
 23
37.603409
 33
0.0
 14
837.563543
 24
37.603409
 34
0.0
100
AcDbRotatedDimension
  0
DIMENSION
  5
48D
102
{ACAD_REACTORS
330
49C
102
}
102
{ACAD_XDICTIONARY
360
49B
102
}
330
1F
100
AcDbEntity
  8
0
370
    70
100
AcDbDimension
280
     0
  2
*D20
 10
43.86663029012933
 20
37.60340900000001
 30
0.0
 11
43.86663029012939
 21
365.1034090000001
 31
0.0
 70
    32
 71
     5
 42
655.0
 73
     0
 74
     0
 75
     0
  3
Standard
100
AcDbAlignedDimension
 13
139.563543
 23
692.603409
 33
0.0
 14
139.563543
 24
37.603409
 34
0.0
 50
90.0
100
AcDbRotatedDimension
  0
ENDSEC
  0
SECTION
  2
OBJECTS
  0
DICTIONARY
  5
C
330
0
100
AcDbDictionary
281
     1
  3
ACAD_DETAILVIEWSTYLE
350
338
  3
ACAD_GROUP
350
D
  3
ACAD_LAYOUT
350
1A
  3
ACAD_MATERIAL
350
43
  3
ACAD_MLEADERSTYLE
350
6B
  3
ACAD_MLINESTYLE
350
17
  3
ACAD_PLOTSETTINGS
350
19
  3
ACAD_PLOTSTYLENAME
350
E
  3
ACAD_SCALELIST
350
47
  3
ACAD_SECTIONVIEWSTYLE
350
339
  3
ACAD_TABLESTYLE
350
69
  3
ACAD_VISUALSTYLE
350
2A
  3
ACDB_RECOMPOSE_DATA
350
335
  3
AcDbVariableDictionary
350
2F5
  0
DICTIONARY
  5
3B8
330
3AA
100
AcDbDictionary
280
     1
281
     1
  3
ACAD_DIMASSOC
360
3B9
  0
DICTIONARY
  5
3D4
330
3C6
100
AcDbDictionary
280
     1
281
     1
  3
ACAD_DIMASSOC
360
3D5
  0
DICTIONARY
  5
3EC
330
3DE
100
AcDbDictionary
280
     1
281
     1
  3
ACAD_DIMASSOC
360
3ED
  0
DICTIONARY
  5
49B
330
48D
100
AcDbDictionary
280
     1
281
     1
  3
ACAD_DIMASSOC
360
49C
  0
DICTIONARY
  5
338
102
{ACAD_REACTORS
330
C
102
}
330
C
100
AcDbDictionary
281
     1
  0
DICTIONARY
  5
D
102
{ACAD_REACTORS
330
C
102
}
330
C
100
AcDbDictionary
281
     1
  0
DICTIONARY
  5
1A
102
{ACAD_REACTORS
330
C
102
}
330
C
100
AcDbDictionary
281
     1
  3
Layout1
350
1E
  3
Layout2
350
26
  3
Model
350
22
  0
DICTIONARY
  5
43
102
{ACAD_REACTORS
330
C
102
}
330
C
100
AcDbDictionary
281
     1
  3
ByBlock
350
45
  3
ByLayer
350
44
  3
Global
350
46
  0
DICTIONARY
  5
6B
102
{ACAD_REACTORS
330
C
102
}
330
C
100
AcDbDictionary
281
     1
  3
Standard
350
6C
  0
DICTIONARY
  5
17
102
{ACAD_REACTORS
330
C
102
}
330
C
100
AcDbDictionary
281
     1
  3
Standard
350
18
  0
DICTIONARY
  5
19
102
{ACAD_REACTORS
330
C
102
}
330
C
100
AcDbDictionary
281
     1
  0
ACDBDICTIONARYWDFLT
  5
E
102
{ACAD_REACTORS
330
C
102
}
330
C
100
AcDbDictionary
281
     1
  3
Normal
350
F
100
AcDbDictionaryWithDefault
340
F
  0
DICTIONARY
  5
47
102
{ACAD_REACTORS
330
C
102
}
330
C
100
AcDbDictionary
281
     1
  3
A0
350
48
  3
A1
350
49
  3
A2
350
4A
  3
A3
350
4B
  3
A4
350
4C
  3
A5
350
4D
  3
A6
350
4E
  3
A7
350
4F
  3
A8
350
50
  3
A9
350
51
  3
B0
350
52
  3
B1
350
53
  3
B2
350
54
  3
B3
350
55
  3
B4
350
56
  3
B5
350
57
  3
B6
350
58
  3
B7
350
59
  3
B8
350
5A
  3
B9
350
5B
  3
C0
350
5C
  3
C1
350
5D
  3
C2
350
5E
  3
C3
350
5F
  3
C4
350
60
  3
C5
350
61
  3
C6
350
62
  3
C7
350
63
  3
C8
350
64
  3
C9
350
65
  3
D0
350
66
  3
D1
350
67
  3
D2
350
68
  0
DICTIONARY
  5
339
102
{ACAD_REACTORS
330
C
102
}
330
C
100
AcDbDictionary
281
     1
  0
DICTIONARY
  5
69
102
{ACAD_REACTORS
330
C
102
}
330
C
100
AcDbDictionary
281
     1
  3
Standard
350
6A
  0
DICTIONARY
  5
2A
102
{ACAD_REACTORS
330
C
102
}
330
C
100
AcDbDictionary
281
     1
  3
2dWireframe
350
2F
  3
Basic
350
32
  3
Brighten
350
36
  3
ColorChange
350
3A
  3
Conceptual
350
34
  3
Dim
350
35
  3
EdgeColorOff
350
3D
  3
Facepattern
350
39
  3
Flat
350
2B
  3
FlatWithEdges
350
2C
  3
Gouraud
350
2D
  3
GouraudWithEdges
350
2E
  3
Hidden
350
31
  3
JitterOff
350
3B
  3
Linepattern
350
38
  3
OverhangOff
350
3C
  3
Realistic
350
33
  3
Shaded
350
42
  3
Shaded with edges
350
41
  3
Shades of Gray
350
3E
  3
Sketchy
350
3F
  3
Thicken
350
37
  3
Wireframe
350
30
  3
X-Ray
350
40
  0
XRECORD
  5
335
102
{ACAD_REACTORS
330
C
102
}
330
C
100
AcDbXrecord
280
     1
 90
        1
330
0
330
6A
  0
DICTIONARY
  5
2F5
102
{ACAD_REACTORS
330
C
102
}
330
C
100
AcDbDictionary
281
     1
  3
CANNOSCALE
350
2F6
  3
CMLEADERSTYLE
350
337
  3
CTABLESTYLE
350
336
  3
MSLTSCALE
350
2F7
  3
XCLIPFRAME
350
2F8
  0
DIMASSOC
  5
3B9
102
{ACAD_REACTORS
330
3B8
102
}
330
3B8
100
AcDbDimAssoc
330
3AA
 90
       15
 70
     0
 71
     0
  1
AcDbOsnapPointRef
 72
    13
331
3A7
 73
     2
 91
        0
 40
13.0
 10
0.0
 20
0.0
 30
0.0
 75
     0
  1
AcDbOsnapPointRef
 72
     1
331
3A7
 73
     2
 91
        0
 40
1.0
 10
0.0
 20
0.0
 30
0.0
 75
     0
  1
AcDbOsnapPointRef
 72
    13
331
CC
 73
     2
 91
        0
 40
13.0
 10
0.0
 20
0.0
 30
0.0
 75
     0
  1
AcDbOsnapPointRef
 72
     1
331
CC
 73
     2
 91
        0
 40
1.0
 10
0.0
 20
0.0
 30
0.0
 75
     0
  0
DIMASSOC
  5
3D5
102
{ACAD_REACTORS
330
3D4
102
}
330
3D4
100
AcDbDimAssoc
330
3C6
 90
       15
 70
     0
 71
     0
  1
AcDbOsnapPointRef
 72
    13
331
3C3
 73
     2
 91
        0
 40
13.0
 10
0.0
 20
0.0
 30
0.0
 75
     0
  1
AcDbOsnapPointRef
 72
     1
331
3C3
 73
     2
 91
        0
 40
1.0
 10
0.0
 20
0.0
 30
0.0
 75
     0
  1
AcDbOsnapPointRef
 72
    13
331
3C2
 73
     2
 91
        0
 40
13.0
 10
0.0
 20
0.0
 30
0.0
 75
     0
  1
AcDbOsnapPointRef
 72
     1
331
3C2
 73
     2
 91
        0
 40
1.0
 10
0.0
 20
0.0
 30
0.0
 75
     0
  0
DIMASSOC
  5
3ED
102
{ACAD_REACTORS
330
3EC
102
}
330
3EC
100
AcDbDimAssoc
330
3DE
 90
        3
 70
     0
 71
     0
  1
AcDbOsnapPointRef
 72
    13
331
11E
 73
     2
 91
        0
 40
13.0
 10
0.0
 20
0.0
 30
0.0
 75
     0
  1
AcDbOsnapPointRef
 72
     1
331
11F
 73
     2
 91
        0
 40
1.0
 10
0.0
 20
0.0
 30
0.0
 75
     0
  0
DIMASSOC
  5
49C
102
{ACAD_REACTORS
330
49B
102
}
330
49B
100
AcDbDimAssoc
330
48D
 90
        3
 70
     0
 71
     0
  1
AcDbOsnapPointRef
 72
    13
331
82
 73
     2
 91
        0
 40
13.0
 10
0.0
 20
0.0
 30
0.0
 75
     0
  1
AcDbOsnapPointRef
 72
     8
331
118
 73
     2
 91
        0
 40
8.0
 10
0.0
 20
0.0
 30
0.0
 75
     1
  1
AcDbOsnapPointRef
 72
     0
 40
0.0
 10
139.563543
 20
692.603409
 30
0.0
 75
     0
  0
LAYOUT
  5
1E
102
{ACAD_REACTORS
330
1A
102
}
330
1A
100
AcDbPlotSettings
  1

  2
none_device
  4

  6

 40
0.0
 41
0.0
 42
0.0
 43
0.0
 44
0.0
 45
0.0
 46
0.0
 47
0.0
 48
0.0
 49
0.0
140
0.0
141
0.0
142
1.0
143
1.0
 70
   688
 72
     0
 73
     0
 74
     5
  7

 75
    16
 76
     0
 77
     2
 78
   300
147
1.0
148
0.0
149
0.0
100
AcDbLayout
  1
Layout1
 70
     1
 71
     1
 10
-0.5
 20
-0.5
 11
5.0
 21
5.0
 12
0.0
 22
0.0
 32
0.0
 14
-0.5
 24
-0.5
 34
-0.5
 15
5.0
 25
5.0
 35
5.0
146
0.0
 13
0.0
 23
0.0
 33
0.0
 16
1.0
 26
0.0
 36
0.0
 17
0.0
 27
1.0
 37
0.0
 76
     0
330
1B
  0
LAYOUT
  5
26
102
{ACAD_REACTORS
330
1A
102
}
330
1A
100
AcDbPlotSettings
  1

  2
none_device
  4

  6

 40
0.0
 41
0.0
 42
0.0
 43
0.0
 44
0.0
 45
0.0
 46
0.0
 47
0.0
 48
0.0
 49
0.0
140
0.0
141
0.0
142
1.0
143
1.0
 70
   688
 72
     0
 73
     0
 74
     5
  7

 75
    16
 76
     0
 77
     2
 78
   300
147
1.0
148
0.0
149
0.0
100
AcDbLayout
  1
Layout2
 70
     1
 71
     2
 10
0.0
 20
0.0
 11
0.0
 21
0.0
 12
0.0
 22
0.0
 32
0.0
 14
0.0
 24
0.0
 34
0.0
 15
0.0
 25
0.0
 35
0.0
146
0.0
 13
0.0
 23
0.0
 33
0.0
 16
1.0
 26
0.0
 36
0.0
 17
0.0
 27
1.0
 37
0.0
 76
     0
330
23
  0
LAYOUT
  5
22
102
{ACAD_REACTORS
330
1A
102
}
330
1A
100
AcDbPlotSettings
  1

  2
none_device
  4
Letter_(8.50_x_11.00_Inches)
  6

 40
6.35
 41
6.35
 42
6.350005
 43
6.350005
 44
215.9
 45
279.4
 46
0.0
 47
0.0
 48
0.0
 49
0.0
140
0.0
141
0.0
142
1.0
143
1.0
 70
  1712
 72
     0
 73
     0
 74
     0
  7

 75
     0
 76
     0
 77
     2
 78
   300
147
1.0
148
0.0
149
0.0
100
AcDbLayout
  1
Model
 70
     1
 71
     0
 10
-0.5
 20
-0.5
 11
5.0
 21
5.0
 12
0.0
 22
0.0
 32
0.0
 14
-0.5
 24
-0.5
 34
-0.5
 15
5.0
 25
5.0
 35
5.0
146
0.0
 13
0.0
 23
0.0
 33
0.0
 16
1.0
 26
0.0
 36
0.0
 17
0.0
 27
1.0
 37
0.0
 76
     0
330
1F
331
29
  0
MATERIAL
  5
45
102
{ACAD_REACTORS
330
43
102
}
330
43
100
AcDbMaterial
  1
ByBlock
 72
     1
 94
      127
  0
MATERIAL
  5
44
102
{ACAD_REACTORS
330
43
102
}
330
43
100
AcDbMaterial
  1
ByLayer
 72
     1
 94
      127
  0
MATERIAL
  5
46
102
{ACAD_REACTORS
330
43
102
}
330
43
100
AcDbMaterial
  1
Global
 72
     1
 94
      127
  0
MLEADERSTYLE
  5
6C
102
{ACAD_REACTORS
330
6B
102
}
330
6B
100
AcDbMLeaderStyle
179
     2
170
     2
171
     1
172
     0
 90
        2
 40
0.0
 41
0.0
173
     1
 91
-1056964608
340
14
 92
       -2
290
     1
 42
0.09
291
     1
 43
0.36
  3
Standard
341
0
 44
0.18
300

342
11
174
     1
178
     6
175
     1
176
     0
 93
-1056964608
 45
0.18
292
     0
297
     0
 46
0.18
343
0
 94
-1056964608
 47
1.0
 49
1.0
140
1.0
293
     1
141
0.0
294
     1
177
     0
142
1.0
295
     0
296
     0
143
0.125
271
     0
272
     9
273
     9
1001
ACAD_MLEADERVER
1070
     2
  0
MLINESTYLE
  5
18
102
{ACAD_REACTORS
330
17
102
}
330
17
100
AcDbMlineStyle
  2
Standard
 70
     0
  3

 62
   256
 51
90.0
 52
90.0
 71
     2
 49
0.5
 62
   256
  6
BYLAYER
 49
-0.5
 62
   256
  6
BYLAYER
  0
ACDBPLACEHOLDER
  5
F
102
{ACAD_REACTORS
330
E
102
}
330
E
  0
SCALE
  5
48
102
{ACAD_REACTORS
330
47
102
}
330
47
100
AcDbScale
 70
     0
300
1:1
140
1.0
141
1.0
290
     1
  0
SCALE
  5
49
102
{ACAD_REACTORS
330
47
102
}
330
47
100
AcDbScale
 70
     0
300
1:2
140
1.0
141
2.0
290
     0
  0
SCALE
  5
4A
102
{ACAD_REACTORS
330
47
102
}
330
47
100
AcDbScale
 70
     0
300
1:4
140
1.0
141
4.0
290
     0
  0
SCALE
  5
4B
102
{ACAD_REACTORS
330
47
102
}
330
47
100
AcDbScale
 70
     0
300
1:5
140
1.0
141
5.0
290
     0
  0
SCALE
  5
4C
102
{ACAD_REACTORS
330
47
102
}
330
47
100
AcDbScale
 70
     0
300
1:8
140
1.0
141
8.0
290
     0
  0
SCALE
  5
4D
102
{ACAD_REACTORS
330
47
102
}
330
47
100
AcDbScale
 70
     0
300
1:10
140
1.0
141
10.0
290
     0
  0
SCALE
  5
4E
102
{ACAD_REACTORS
330
47
102
}
330
47
100
AcDbScale
 70
     0
300
1:16
140
1.0
141
16.0
290
     0
  0
SCALE
  5
4F
102
{ACAD_REACTORS
330
47
102
}
330
47
100
AcDbScale
 70
     0
300
1:20
140
1.0
141
20.0
290
     0
  0
SCALE
  5
50
102
{ACAD_REACTORS
330
47
102
}
330
47
100
AcDbScale
 70
     0
300
1:30
140
1.0
141
30.0
290
     0
  0
SCALE
  5
51
102
{ACAD_REACTORS
330
47
102
}
330
47
100
AcDbScale
 70
     0
300
1:40
140
1.0
141
40.0
290
     0
  0
SCALE
  5
52
102
{ACAD_REACTORS
330
47
102
}
330
47
100
AcDbScale
 70
     0
300
1:50
140
1.0
141
50.0
290
     0
  0
SCALE
  5
53
102
{ACAD_REACTORS
330
47
102
}
330
47
100
AcDbScale
 70
     0
300
1:100
140
1.0
141
100.0
290
     0
  0
SCALE
  5
54
102
{ACAD_REACTORS
330
47
102
}
330
47
100
AcDbScale
 70
     0
300
2:1
140
2.0
141
1.0
290
     0
  0
SCALE
  5
55
102
{ACAD_REACTORS
330
47
102
}
330
47
100
AcDbScale
 70
     0
300
4:1
140
4.0
141
1.0
290
     0
  0
SCALE
  5
56
102
{ACAD_REACTORS
330
47
102
}
330
47
100
AcDbScale
 70
     0
300
8:1
140
8.0
141
1.0
290
     0
  0
SCALE
  5
57
102
{ACAD_REACTORS
330
47
102
}
330
47
100
AcDbScale
 70
     0
300
10:1
140
10.0
141
1.0
290
     0
  0
SCALE
  5
58
102
{ACAD_REACTORS
330
47
102
}
330
47
100
AcDbScale
 70
     0
300
100:1
140
100.0
141
1.0
290
     0
  0
SCALE
  5
59
102
{ACAD_REACTORS
330
47
102
}
330
47
100
AcDbScale
 70
     0
300
1/128" = 1'-0"
140
0.007812
141
12.0
290
     0
  0
SCALE
  5
5A
102
{ACAD_REACTORS
330
47
102
}
330
47
100
AcDbScale
 70
     0
300
1/64" = 1'-0"
140
0.015625
141
12.0
290
     0
  0
SCALE
  5
5B
102
{ACAD_REACTORS
330
47
102
}
330
47
100
AcDbScale
 70
     0
300
1/32" = 1'-0"
140
0.03125
141
12.0
290
     0
  0
SCALE
  5
5C
102
{ACAD_REACTORS
330
47
102
}
330
47
100
AcDbScale
 70
     0
300
1/16" = 1'-0"
140
0.0625
141
12.0
290
     0
  0
SCALE
  5
5D
102
{ACAD_REACTORS
330
47
102
}
330
47
100
AcDbScale
 70
     0
300
3/32" = 1'-0"
140
0.09375
141
12.0
290
     0
  0
SCALE
  5
5E
102
{ACAD_REACTORS
330
47
102
}
330
47
100
AcDbScale
 70
     0
300
1/8" = 1'-0"
140
0.125
141
12.0
290
     0
  0
SCALE
  5
5F
102
{ACAD_REACTORS
330
47
102
}
330
47
100
AcDbScale
 70
     0
300
3/16" = 1'-0"
140
0.1875
141
12.0
290
     0
  0
SCALE
  5
60
102
{ACAD_REACTORS
330
47
102
}
330
47
100
AcDbScale
 70
     0
300
1/4" = 1'-0"
140
0.25
141
12.0
290
     0
  0
SCALE
  5
61
102
{ACAD_REACTORS
330
47
102
}
330
47
100
AcDbScale
 70
     0
300
3/8" = 1'-0"
140
0.375
141
12.0
290
     0
  0
SCALE
  5
62
102
{ACAD_REACTORS
330
47
102
}
330
47
100
AcDbScale
 70
     0
300
1/2" = 1'-0"
140
0.5
141
12.0
290
     0
  0
SCALE
  5
63
102
{ACAD_REACTORS
330
47
102
}
330
47
100
AcDbScale
 70
     0
300
3/4" = 1'-0"
140
0.75
141
12.0
290
     0
  0
SCALE
  5
64
102
{ACAD_REACTORS
330
47
102
}
330
47
100
AcDbScale
 70
     0
300
1" = 1'-0"
140
1.0
141
12.0
290
     0
  0
SCALE
  5
65
102
{ACAD_REACTORS
330
47
102
}
330
47
100
AcDbScale
 70
     0
300
1-1/2" = 1'-0"
140
1.5
141
12.0
290
     0
  0
SCALE
  5
66
102
{ACAD_REACTORS
330
47
102
}
330
47
100
AcDbScale
 70
     0
300
3" = 1'-0"
140
3.0
141
12.0
290
     0
  0
SCALE
  5
67
102
{ACAD_REACTORS
330
47
102
}
330
47
100
AcDbScale
 70
     0
300
6" = 1'-0"
140
6.0
141
12.0
290
     0
  0
SCALE
  5
68
102
{ACAD_REACTORS
330
47
102
}
330
47
100
AcDbScale
 70
     0
300
1'-0" = 1'-0"
140
12.0
141
12.0
290
     0
  0
TABLESTYLE
  5
6A
102
{ACAD_REACTORS
330
69
102
}
102
{ACAD_XDICTIONARY
360
32F
102
}
330
69
100
AcDbTableStyle
  3
Standard
 70
     0
 71
     0
 40
1.5
 41
1.5
280
     0
281
     0
  7
Standard
140
0.18
170
     2
 62
     0
 63
   257
283
     0
 90
        4
 91
        0
  1

274
    -2
284
     1
 64
     0
275
    -2
285
     1
 65
     0
276
    -2
286
     1
 66
     0
277
    -2
287
     1
 67
     0
278
    -2
288
     1
 68
     0
279
    -2
289
     1
 69
     0
  7
Standard
140
0.25
170
     5
 62
     0
 63
   257
283
     0
 90
        4
 91
        0
  1

274
    -2
284
     1
 64
     0
275
    -2
285
     1
 65
     0
276
    -2
286
     1
 66
     0
277
    -2
287
     1
 67
     0
278
    -2
288
     1
 68
     0
279
    -2
289
     1
 69
     0
  7
Standard
140
0.18
170
     5
 62
     0
 63
   257
283
     0
 90
        4
 91
        0
  1

274
    -2
284
     1
 64
     0
275
    -2
285
     1
 65
     0
276
    -2
286
     1
 66
     0
277
    -2
287
     1
 67
     0
278
    -2
288
     1
 68
     0
279
    -2
289
     1
 69
     0
  0
VISUALSTYLE
  5
2F
102
{ACAD_REACTORS
330
2A
102
}
330
2A
100
AcDbVisualStyle
  2
2dWireframe
 70
     4
177
     2
291
     0
 71
     0
176
     1
 72
     2
176
     1
 73
     0
176
     1
 90
        0
176
     1
 40
0.6
176
     1
 41
30.0
176
     1
 62
     5
 63
     7
421
 16777215
176
     1
 74
     1
176
     1
 91
        4
176
     1
 64
     7
176
     1
 65
   257
176
     1
 75
     1
176
     1
175
     1
176
     1
 42
1.0
176
     1
 92
        0
176
     1
 66
   257
176
     1
 43
1.0
176
     1
 76
     1
176
     1
 77
     6
176
     1
 78
     2
176
     1
 67
     7
176
     1
 79
     5
176
     1
170
     0
176
     1
171
     0
176
     1
290
     0
176
     1
 93
        1
176
     1
 44
0.0
176
     1
173
     0
176
     1
  0
VISUALSTYLE
  5
32
102
{ACAD_REACTORS
330
2A
102
}
330
2A
100
AcDbVisualStyle
  2
Basic
 70
     7
177
     2
291
     1
 71
     1
176
     1
 72
     0
176
     1
 73
     1
176
     1
 90
        0
176
     1
 40
0.6
176
     1
 41
30.0
176
     1
 62
     5
 63
     7
421
 16777215
176
     1
 74
     0
176
     1
 91
        4
176
     1
 64
     7
176
     1
 65
   257
176
     1
 75
     1
176
     1
175
     1
176
     1
 42
1.0
176
     1
 92
        8
176
     1
 66
     7
176
     1
 43
1.0
176
     1
 76
     1
176
     1
 77
     6
176
     1
 78
     2
176
     1
 67
     7
176
     1
 79
     5
176
     1
170
     0
176
     1
171
     0
176
     1
290
     0
176
     1
 93
        1
176
     1
 44
0.0
176
     1
173
     0
176
     1
  0
VISUALSTYLE
  5
36
102
{ACAD_REACTORS
330
2A
102
}
330
2A
100
AcDbVisualStyle
  2
Brighten
 70
    12
177
     2
291
     1
 71
     2
176
     1
 72
     2
176
     1
 73
     0
176
     1
 90
        0
176
     1
 40
0.6
176
     1
 41
30.0
176
     1
 62
     5
 63
     7
421
 16777215
176
     1
 74
     1
176
     1
 91
        4
176
     1
 64
     7
176
     1
 65
   257
176
     1
 75
     1
176
     1
175
     1
176
     1
 42
1.0
176
     1
 92
        8
176
     1
 66
     7
176
     1
 43
1.0
176
     1
 76
     1
176
     1
 77
     6
176
     1
 78
     2
176
     1
 67
     7
176
     1
 79
     5
176
     1
170
     0
176
     1
171
     0
176
     1
290
     0
176
     1
 93
        1
176
     1
 44
50.0
176
     1
173
     0
176
     1
  0
VISUALSTYLE
  5
3A
102
{ACAD_REACTORS
330
2A
102
}
330
2A
100
AcDbVisualStyle
  2
ColorChange
 70
    16
177
     2
291
     1
 71
     2
176
     1
 72
     2
176
     1
 73
     3
176
     1
 90
        0
176
     1
 40
0.6
176
     1
 41
30.0
176
     1
 62
     5
 63
     8
421
  8421504
176
     1
 74
     1
176
     1
 91
        4
176
     1
 64
     7
176
     1
 65
   257
176
     1
 75
     1
176
     1
175
     1
176
     1
 42
1.0
176
     1
 92
        8
176
     1
 66
     8
424
  8421504
176
     1
 43
1.0
176
     1
 76
     1
176
     1
 77
     6
176
     1
 78
     2
176
     1
 67
     7
176
     1
 79
     5
176
     1
170
     0
176
     1
171
     0
176
     1
290
     0
176
     1
 93
        1
176
     1
 44
0.0
176
     1
173
     0
176
     1
  0
VISUALSTYLE
  5
34
102
{ACAD_REACTORS
330
2A
102
}
330
2A
100
AcDbVisualStyle
  2
Conceptual
 70
     9
177
     2
291
     0
 71
     3
176
     1
 72
     2
176
     1
 73
     0
176
     1
 90
        0
176
     1
 40
0.6
176
     1
 41
30.0
176
     1
 62
     5
 63
     7
421
 16777215
176
     1
 74
     2
176
     1
 91
        2
176
     1
 64
     7
176
     1
 65
   257
176
     1
 75
     1
176
     1
175
     1
176
     1
 42
179.0
176
     1
 92
        8
176
     1
 66
     7
176
     1
 43
1.0
176
     1
 76
     1
176
     1
 77
     6
176
     1
 78
     2
176
     1
 67
     7
176
     1
 79
     3
176
     1
170
     0
176
     1
171
     0
176
     1
290
     0
176
     1
 93
        1
176
     1
 44
0.0
176
     1
173
     0
176
     1
  0
VISUALSTYLE
  5
35
102
{ACAD_REACTORS
330
2A
102
}
330
2A
100
AcDbVisualStyle
  2
Dim
 70
    11
177
     2
291
     1
 71
     2
176
     1
 72
     2
176
     1
 73
     0
176
     1
 90
        0
176
     1
 40
0.6
176
     1
 41
30.0
176
     1
 62
     5
 63
     7
421
 16777215
176
     1
 74
     1
176
     1
 91
        4
176
     1
 64
     7
176
     1
 65
   257
176
     1
 75
     1
176
     1
175
     1
176
     1
 42
1.0
176
     1
 92
        8
176
     1
 66
     7
176
     1
 43
1.0
176
     1
 76
     1
176
     1
 77
     6
176
     1
 78
     2
176
     1
 67
     7
176
     1
 79
     5
176
     1
170
     0
176
     1
171
     0
176
     1
290
     0
176
     1
 93
        1
176
     1
 44
-50.0
176
     1
173
     0
176
     1
  0
VISUALSTYLE
  5
3D
102
{ACAD_REACTORS
330
2A
102
}
330
2A
100
AcDbVisualStyle
  2
EdgeColorOff
 70
    22
177
     2
291
     1
 71
     2
176
     0
 72
     2
176
     0
 73
     0
176
     0
 90
        0
176
     0
 40
0.6
176
     0
 41
30.0
176
     0
 62
     5
 63
     7
421
 16777215
176
     0
 74
     1
176
     0
 91
        4
176
     0
 64
     7
176
     0
 65
   257
176
     0
 75
     1
176
     0
175
     1
176
     0
 42
1.0
176
     0
 92
        8
176
     2
 66
     7
176
     0
 43
1.0
176
     0
 76
     1
176
     0
 77
     6
176
     0
 78
     2
176
     0
 67
     7
176
     0
 79
     5
176
     0
170
     0
176
     0
171
     0
176
     0
290
     0
176
     0
 93
        1
176
     0
 44
0.0
176
     0
173
     0
176
     0
  0
VISUALSTYLE
  5
39
102
{ACAD_REACTORS
330
2A
102
}
330
2A
100
AcDbVisualStyle
  2
Facepattern
 70
    15
177
     2
291
     1
 71
     2
176
     1
 72
     2
176
     1
 73
     0
176
     1
 90
        0
176
     1
 40
0.6
176
     1
 41
30.0
176
     1
 62
     5
 63
     7
421
 16777215
176
     1
 74
     1
176
     1
 91
        4
176
     1
 64
     7
176
     1
 65
   257
176
     1
 75
     1
176
     1
175
     1
176
     1
 42
1.0
176
     1
 92
        8
176
     1
 66
     7
176
     1
 43
1.0
176
     1
 76
     1
176
     1
 77
     6
176
     1
 78
     2
176
     1
 67
     7
176
     1
 79
     5
176
     1
170
     0
176
     1
171
     0
176
     1
290
     0
176
     1
 93
        1
176
     1
 44
0.0
176
     1
173
     0
176
     1
  0
VISUALSTYLE
  5
2B
102
{ACAD_REACTORS
330
2A
102
}
330
2A
100
AcDbVisualStyle
  2
Flat
 70
     0
177
     2
291
     1
 71
     2
176
     1
 72
     1
176
     1
 73
     1
176
     1
 90
        2
176
     1
 40
0.6
176
     1
 41
30.0
176
     1
 62
     5
 63
     7
421
 16777215
176
     1
 74
     0
176
     1
 91
        0
176
     1
 64
     7
176
     1
 65
   257
176
     1
 75
     1
176
     1
175
     1
176
     1
 42
1.0
176
     1
 92
        8
176
     1
 66
     7
176
     1
 43
1.0
176
     1
 76
     1
176
     1
 77
     6
176
     1
 78
     2
176
     1
 67
     7
176
     1
 79
     5
176
     1
170
     0
176
     1
171
     0
176
     1
290
     0
176
     1
 93
       13
176
     1
 44
0.0
176
     1
173
     0
176
     1
  0
VISUALSTYLE
  5
2C
102
{ACAD_REACTORS
330
2A
102
}
330
2A
100
AcDbVisualStyle
  2
FlatWithEdges
 70
     1
177
     2
291
     1
 71
     2
176
     1
 72
     1
176
     1
 73
     1
176
     1
 90
        2
176
     1
 40
0.6
176
     1
 41
30.0
176
     1
 62
     5
 63
     7
421
 16777215
176
     1
 74
     1
176
     1
 91
        0
176
     1
 64
     7
176
     1
 65
   257
176
     1
 75
     1
176
     1
175
     1
176
     1
 42
1.0
176
     1
 92
        0
176
     1
 66
   257
176
     1
 43
1.0
176
     1
 76
     1
176
     1
 77
     6
176
     1
 78
     2
176
     1
 67
     7
176
     1
 79
     5
176
     1
170
     0
176
     1
171
     0
176
     1
290
     0
176
     1
 93
       13
176
     1
 44
0.0
176
     1
173
     0
176
     1
  0
VISUALSTYLE
  5
2D
102
{ACAD_REACTORS
330
2A
102
}
330
2A
100
AcDbVisualStyle
  2
Gouraud
 70
     2
177
     2
291
     1
 71
     2
176
     1
 72
     2
176
     1
 73
     1
176
     1
 90
        2
176
     1
 40
0.6
176
     1
 41
30.0
176
     1
 62
     5
 63
     7
421
 16777215
176
     1
 74
     0
176
     1
 91
        0
176
     1
 64
     7
176
     1
 65
   257
176
     1
 75
     1
176
     1
175
     1
176
     1
 42
1.0
176
     1
 92
        0
176
     1
 66
     7
176
     1
 43
1.0
176
     1
 76
     1
176
     1
 77
     6
176
     1
 78
     2
176
     1
 67
     7
176
     1
 79
     5
176
     1
170
     0
176
     1
171
     0
176
     1
290
     0
176
     1
 93
       13
176
     1
 44
0.0
176
     1
173
     0
176
     1
  0
VISUALSTYLE
  5
2E
102
{ACAD_REACTORS
330
2A
102
}
330
2A
100
AcDbVisualStyle
  2
GouraudWithEdges
 70
     3
177
     2
291
     1
 71
     2
176
     1
 72
     2
176
     1
 73
     1
176
     1
 90
        2
176
     1
 40
0.6
176
     1
 41
30.0
176
     1
 62
     5
 63
     7
421
 16777215
176
     1
 74
     1
176
     1
 91
        0
176
     1
 64
     7
176
     1
 65
   257
176
     1
 75
     1
176
     1
175
     1
176
     1
 42
1.0
176
     1
 92
        0
176
     1
 66
   257
176
     1
 43
1.0
176
     1
 76
     1
176
     1
 77
     6
176
     1
 78
     2
176
     1
 67
     7
176
     1
 79
     5
176
     1
170
     0
176
     1
171
     0
176
     1
290
     0
176
     1
 93
       13
176
     1
 44
0.0
176
     1
173
     0
176
     1
  0
VISUALSTYLE
  5
31
102
{ACAD_REACTORS
330
2A
102
}
330
2A
100
AcDbVisualStyle
  2
Hidden
 70
     6
177
     2
291
     0
 71
     1
176
     1
 72
     2
176
     1
 73
     2
176
     1
 90
        0
176
     1
 40
0.6
176
     1
 41
30.0
176
     1
 62
     5
 63
     7
421
 16777215
176
     1
 74
     2
176
     1
 91
        2
176
     1
 64
     7
176
     1
 65
   257
176
     1
 75
     2
176
     1
175
     1
176
     1
 42
40.0
176
     1
 92
        0
176
     1
 66
   257
176
     1
 43
1.0
176
     1
 76
     1
176
     1
 77
     6
176
     1
 78
     2
176
     1
 67
     7
176
     1
 79
     3
176
     1
170
     0
176
     1
171
     0
176
     1
290
     0
176
     1
 93
        1
176
     1
 44
0.0
176
     1
173
     0
176
     1
  0
VISUALSTYLE
  5
3B
102
{ACAD_REACTORS
330
2A
102
}
330
2A
100
AcDbVisualStyle
  2
JitterOff
 70
    20
177
     2
291
     1
 71
     2
176
     0
 72
     2
176
     0
 73
     0
176
     0
 90
        0
176
     0
 40
0.6
176
     0
 41
30.0
176
     0
 62
     5
 63
     7
421
 16777215
176
     0
 74
     1
176
     0
 91
        4
176
     0
 64
     7
176
     0
 65
   257
176
     0
 75
     1
176
     0
175
     1
176
     0
 42
1.0
176
     0
 92
       10
176
     2
 66
     7
176
     0
 43
1.0
176
     0
 76
     1
176
     0
 77
     6
176
     0
 78
     2
176
     0
 67
     7
176
     0
 79
     5
176
     0
170
     0
176
     0
171
     0
176
     0
290
     0
176
     0
 93
        1
176
     0
 44
0.0
176
     0
173
     0
176
     0
  0
VISUALSTYLE
  5
38
102
{ACAD_REACTORS
330
2A
102
}
330
2A
100
AcDbVisualStyle
  2
Linepattern
 70
    14
177
     2
291
     1
 71
     2
176
     1
 72
     2
176
     1
 73
     0
176
     1
 90
        0
176
     1
 40
0.6
176
     1
 41
30.0
176
     1
 62
     5
 63
     7
421
 16777215
176
     1
 74
     1
176
     1
 91
        4
176
     1
 64
     7
176
     1
 65
   257
176
     1
 75
     7
176
     1
175
     7
176
     1
 42
1.0
176
     1
 92
        8
176
     1
 66
     7
176
     1
 43
1.0
176
     1
 76
     1
176
     1
 77
     6
176
     1
 78
     2
176
     1
 67
     7
176
     1
 79
     5
176
     1
170
     0
176
     1
171
     0
176
     1
290
     0
176
     1
 93
        1
176
     1
 44
0.0
176
     1
173
     0
176
     1
  0
VISUALSTYLE
  5
3C
102
{ACAD_REACTORS
330
2A
102
}
330
2A
100
AcDbVisualStyle
  2
OverhangOff
 70
    21
177
     2
291
     1
 71
     2
176
     0
 72
     2
176
     0
 73
     0
176
     0
 90
        0
176
     0
 40
0.6
176
     0
 41
30.0
176
     0
 62
     5
 63
     7
421
 16777215
176
     0
 74
     1
176
     0
 91
        4
176
     0
 64
     7
176
     0
 65
   257
176
     0
 75
     1
176
     0
175
     1
176
     0
 42
1.0
176
     0
 92
        9
176
     2
 66
     7
176
     0
 43
1.0
176
     0
 76
     1
176
     0
 77
     6
176
     0
 78
     2
176
     0
 67
     7
176
     0
 79
     5
176
     0
170
     0
176
     0
171
     0
176
     0
290
     0
176
     0
 93
        1
176
     0
 44
0.0
176
     0
173
     0
176
     0
  0
VISUALSTYLE
  5
33
102
{ACAD_REACTORS
330
2A
102
}
330
2A
100
AcDbVisualStyle
  2
Realistic
 70
     8
177
     2
291
     0
 71
     2
176
     1
 72
     3
176
     1
 73
     0
176
     1
 90
        2
176
     1
 40
0.6
176
     1
 41
30.0
176
     1
 62
     5
 63
     7
421
 16777215
176
     1
 74
     0
176
     1
 91
        0
176
     1
 64
     7
176
     1
 65
   257
176
     1
 75
     1
176
     1
175
     1
176
     1
 42
1.0
176
     1
 92
        8
176
     1
 66
   257
176
     1
 43
1.0
176
     1
 76
     1
176
     1
 77
     6
176
     1
 78
     2
176
     1
 67
     7
176
     1
 79
     3
176
     1
170
     0
176
     1
171
     0
176
     1
290
     0
176
     1
 93
       13
176
     1
 44
0.0
176
     1
173
     0
176
     1
  0
VISUALSTYLE
  5
42
102
{ACAD_REACTORS
330
2A
102
}
330
2A
100
AcDbVisualStyle
  2
Shaded
 70
    27
177
     2
291
     0
 71
     2
176
     1
 72
     2
176
     1
 73
     1
176
     1
 90
        2
176
     1
 40
0.6
176
     1
 41
30.0
176
     1
 62
     5
 63
     7
421
 16777215
176
     1
 74
     0
176
     1
 91
        4
176
     1
 64
     7
176
     1
 65
   257
176
     1
 75
     1
176
     1
175
     1
176
     1
 42
1.0
176
     1
 92
        8
176
     1
 66
   257
176
     1
 43
1.0
176
     1
 76
     1
176
     1
 77
     6
176
     1
 78
     2
176
     1
 67
     8
425
  7895160
176
     1
 79
     3
176
     1
170
     0
176
     1
171
     0
176
     1
290
     0
176
     1
 93
        5
176
     1
 44
0.0
176
     1
173
     0
176
     1
  0
VISUALSTYLE
  5
41
102
{ACAD_REACTORS
330
2A
102
}
330
2A
100
AcDbVisualStyle
  2
Shaded with edges
 70
    26
177
     2
291
     0
 71
     2
176
     1
 72
     2
176
     1
 73
     1
176
     1
 90
        2
176
     1
 40
0.6
176
     1
 41
30.0
176
     1
 62
     5
 63
     7
421
 16777215
176
     1
 74
     1
176
     1
 91
       10
176
     1
 64
     7
176
     1
 65
   257
176
     1
 75
     2
176
     1
175
     1
176
     1
 42
1.0
176
     1
 92
        8
176
     1
 66
   257
176
     1
 43
1.0
176
     1
 76
     1
176
     1
 77
     6
176
     1
 78
     2
176
     1
 67
     7
176
     1
 79
     3
176
     1
170
     0
176
     1
171
     0
176
     1
290
     0
176
     1
 93
        5
176
     1
 44
0.0
176
     1
173
     0
176
     1
  0
VISUALSTYLE
  5
3E
102
{ACAD_REACTORS
330
2A
102
}
330
2A
100
AcDbVisualStyle
  2
Shades of Gray
 70
    23
177
     2
291
     0
 71
     2
176
     1
 72
     2
176
     1
 73
     3
176
     1
 90
        0
176
     1
 40
0.6
176
     1
 41
30.0
176
     1
 62
     5
 63
     7
421
 16777215
176
     1
 74
     2
176
     1
 91
        2
176
     1
 64
     7
176
     1
 65
     7
176
     1
 75
     1
176
     1
175
     1
176
     1
 42
40.0
176
     1
 92
        8
176
     1
 66
     7
176
     1
 43
1.0
176
     1
 76
     1
176
     1
 77
     6
176
     1
 78
     2
176
     1
 67
     7
176
     1
 79
     3
176
     1
170
     0
176
     1
171
     0
176
     1
290
     0
176
     1
 93
        1
176
     1
 44
0.0
176
     1
173
     0
176
     1
  0
VISUALSTYLE
  5
3F
102
{ACAD_REACTORS
330
2A
102
}
330
2A
100
AcDbVisualStyle
  2
Sketchy
 70
    24
177
     2
291
     0
 71
     1
176
     1
 72
     2
176
     1
 73
     2
176
     1
 90
        0
176
     1
 40
0.6
176
     1
 41
30.0
176
     1
 62
     5
 63
     7
421
 16777215
176
     1
 74
     2
176
     1
 91
        2
176
     1
 64
     7
176
     1
 65
     7
176
     1
 75
     1
176
     1
175
     1
176
     1
 42
40.0
176
     1
 92
       11
176
     1
 66
     7
176
     1
 43
1.0
176
     1
 76
     1
176
     1
 77
     6
176
     1
 78
     2
176
     1
 67
     7
176
     1
 79
     6
176
     1
170
     0
176
     1
171
     0
176
     1
290
     0
176
     1
 93
        1
176
     1
 44
0.0
176
     1
173
     0
176
     1
  0
VISUALSTYLE
  5
37
102
{ACAD_REACTORS
330
2A
102
}
330
2A
100
AcDbVisualStyle
  2
Thicken
 70
    13
177
     2
291
     1
 71
     2
176
     1
 72
     2
176
     1
 73
     0
176
     1
 90
        0
176
     1
 40
0.6
176
     1
 41
30.0
176
     1
 62
     5
 63
     7
421
 16777215
176
     1
 74
     1
176
     1
 91
        4
176
     1
 64
     7
176
     1
 65
   257
176
     1
 75
     1
176
     1
175
     1
176
     1
 42
1.0
176
     1
 92
       12
176
     1
 66
     7
176
     1
 43
1.0
176
     1
 76
     1
176
     1
 77
     6
176
     1
 78
     2
176
     1
 67
     7
176
     1
 79
     5
176
     1
170
     0
176
     1
171
     0
176
     1
290
     0
176
     1
 93
        1
176
     1
 44
0.0
176
     1
173
     0
176
     1
  0
VISUALSTYLE
  5
30
102
{ACAD_REACTORS
330
2A
102
}
330
2A
100
AcDbVisualStyle
  2
Wireframe
 70
     5
177
     2
291
     0
 71
     0
176
     1
 72
     2
176
     1
 73
     0
176
     1
 90
        0
176
     1
 40
0.6
176
     1
 41
30.0
176
     1
 62
     5
 63
     7
421
 16777215
176
     1
 74
     1
176
     1
 91
        4
176
     1
 64
     7
176
     1
 65
   257
176
     1
 75
     1
176
     1
175
     1
176
     1
 42
1.0
176
     1
 92
        0
176
     1
 66
   257
176
     1
 43
1.0
176
     1
 76
     1
176
     1
 77
     6
176
     1
 78
     2
176
     1
 67
     7
176
     1
 79
     3
176
     1
170
     0
176
     1
171
     0
176
     1
290
     0
176
     1
 93
        1
176
     1
 44
0.0
176
     1
173
     0
176
     1
  0
VISUALSTYLE
  5
40
102
{ACAD_REACTORS
330
2A
102
}
330
2A
100
AcDbVisualStyle
  2
X-Ray
 70
    25
177
     2
291
     0
 71
     2
176
     1
 72
     2
176
     1
 73
     1
176
     1
 90
        1
176
     1
 40
0.5
176
     1
 41
30.0
176
     1
 62
     5
 63
     7
421
 16777215
176
     1
 74
     1
176
     1
 91
        0
176
     1
 64
     7
176
     1
 65
   257
176
     1
 75
     1
176
     1
175
     1
176
     1
 42
1.0
176
     1
 92
        8
176
     1
 66
     7
176
     1
 43
1.0
176
     1
 76
     1
176
     1
 77
     6
176
     1
 78
     2
176
     1
 67
     7
176
     1
 79
     3
176
     1
170
     0
176
     1
171
     0
176
     1
290
     0
176
     1
 93
       13
176
     1
 44
0.0
176
     1
173
     0
176
     1
  0
DICTIONARYVAR
  5
2F6
102
{ACAD_REACTORS
330
2F5
102
}
330
2F5
100
DictionaryVariables
280
     0
  1
1:1
  0
DICTIONARYVAR
  5
337
102
{ACAD_REACTORS
330
2F5
102
}
330
2F5
100
DictionaryVariables
280
     0
  1
Standard
  0
DICTIONARYVAR
  5
336
102
{ACAD_REACTORS
330
2F5
102
}
330
2F5
100
DictionaryVariables
280
     0
  1
Standard
  0
DICTIONARYVAR
  5
2F7
102
{ACAD_REACTORS
330
2F5
102
}
330
2F5
100
DictionaryVariables
280
     0
  1
1
  0
DICTIONARYVAR
  5
2F8
102
{ACAD_REACTORS
330
2F5
102
}
330
2F5
100
DictionaryVariables
280
     0
  1
2
  0
DICTIONARY
  5
32F
330
6A
100
AcDbDictionary
280
     1
281
     1
  3
ACAD_ROUNDTRIP_2008_TABLESTYLE_CELLSTYLEMAP
360
4A1
  0
CELLSTYLEMAP
  5
4A1
102
{ACAD_REACTORS
330
32F
102
}
330
32F
100
AcDbCellStyleMap
 90
        3
300
CELLSTYLE
  1
TABLEFORMAT_BEGIN
 90
        5
170
     1
 91
        0
 92
    32768
 62
   257
 93
        1
300
CONTENTFORMAT
  1
CONTENTFORMAT_BEGIN
 90
        0
 91
        0
 92
        4
 93
        0
300

 40
0.0
140
1.0
 94
        5
 62
     0
340
11
144
0.25
309
CONTENTFORMAT_END
171
     1
301
MARGIN
  1
CELLMARGIN_BEGIN
 40
1.5
 40
1.5
 40
1.5
 40
1.5
 40
0.18
 40
0.18
309
CELLMARGIN_END
 94
        6
 95
        1
302
GRIDFORMAT
  1
GRIDFORMAT_BEGIN
 90
        0
 91
        1
 62
     0
 92
       -2
340
0
 93
        0
 40
0.045
309
GRIDFORMAT_END
 95
        2
302
GRIDFORMAT
  1
GRIDFORMAT_BEGIN
 90
        0
 91
        1
 62
     0
 92
       -2
340
0
 93
        0
 40
0.045
309
GRIDFORMAT_END
 95
        4
302
GRIDFORMAT
  1
GRIDFORMAT_BEGIN
 90
        0
 91
        1
 62
     0
 92
       -2
340
0
 93
        0
 40
0.045
309
GRIDFORMAT_END
 95
        8
302
GRIDFORMAT
  1
GRIDFORMAT_BEGIN
 90
        0
 91
        1
 62
     0
 92
       -2
340
0
 93
        0
 40
0.045
309
GRIDFORMAT_END
 95
       16
302
GRIDFORMAT
  1
GRIDFORMAT_BEGIN
 90
        0
 91
        1
 62
     0
 92
       -2
340
0
 93
        0
 40
0.045
309
GRIDFORMAT_END
 95
       32
302
GRIDFORMAT
  1
GRIDFORMAT_BEGIN
 90
        0
 91
        1
 62
     0
 92
       -2
340
0
 93
        0
 40
0.045
309
GRIDFORMAT_END
309
TABLEFORMAT_END
  1
CELLSTYLE_BEGIN
 90
        1
 91
        1
300
_TITLE
309
CELLSTYLE_END
300
CELLSTYLE
  1
TABLEFORMAT_BEGIN
 90
        5
170
     1
 91
        0
 92
        0
 62
   257
 93
        1
300
CONTENTFORMAT
  1
CONTENTFORMAT_BEGIN
 90
        0
 91
        0
 92
        4
 93
        0
300

 40
0.0
140
1.0
 94
        5
 62
     0
340
11
144
0.18
309
CONTENTFORMAT_END
171
     1
301
MARGIN
  1
CELLMARGIN_BEGIN
 40
1.5
 40
1.5
 40
1.5
 40
1.5
 40
0.18
 40
0.18
309
CELLMARGIN_END
 94
        6
 95
        1
302
GRIDFORMAT
  1
GRIDFORMAT_BEGIN
 90
        0
 91
        1
 62
     0
 92
       -2
340
0
 93
        0
 40
0.045
309
GRIDFORMAT_END
 95
        2
302
GRIDFORMAT
  1
GRIDFORMAT_BEGIN
 90
        0
 91
        1
 62
     0
 92
       -2
340
0
 93
        0
 40
0.045
309
GRIDFORMAT_END
 95
        4
302
GRIDFORMAT
  1
GRIDFORMAT_BEGIN
 90
        0
 91
        1
 62
     0
 92
       -2
340
0
 93
        0
 40
0.045
309
GRIDFORMAT_END
 95
        8
302
GRIDFORMAT
  1
GRIDFORMAT_BEGIN
 90
        0
 91
        1
 62
     0
 92
       -2
340
0
 93
        0
 40
0.045
309
GRIDFORMAT_END
 95
       16
302
GRIDFORMAT
  1
GRIDFORMAT_BEGIN
 90
        0
 91
        1
 62
     0
 92
       -2
340
0
 93
        0
 40
0.045
309
GRIDFORMAT_END
 95
       32
302
GRIDFORMAT
  1
GRIDFORMAT_BEGIN
 90
        0
 91
        1
 62
     0
 92
       -2
340
0
 93
        0
 40
0.045
309
GRIDFORMAT_END
309
TABLEFORMAT_END
  1
CELLSTYLE_BEGIN
 90
        2
 91
        1
300
_HEADER
309
CELLSTYLE_END
300
CELLSTYLE
  1
TABLEFORMAT_BEGIN
 90
        5
170
     1
 91
        0
 92
        0
 62
   257
 93
        1
300
CONTENTFORMAT
  1
CONTENTFORMAT_BEGIN
 90
        0
 91
        0
 92
        4
 93
        0
300

 40
0.0
140
1.0
 94
        2
 62
     0
340
11
144
0.18
309
CONTENTFORMAT_END
171
     1
301
MARGIN
  1
CELLMARGIN_BEGIN
 40
1.5
 40
1.5
 40
1.5
 40
1.5
 40
0.18
 40
0.18
309
CELLMARGIN_END
 94
        6
 95
        1
302
GRIDFORMAT
  1
GRIDFORMAT_BEGIN
 90
        0
 91
        1
 62
     0
 92
       -2
340
0
 93
        0
 40
0.045
309
GRIDFORMAT_END
 95
        2
302
GRIDFORMAT
  1
GRIDFORMAT_BEGIN
 90
        0
 91
        1
 62
     0
 92
       -2
340
0
 93
        0
 40
0.045
309
GRIDFORMAT_END
 95
        4
302
GRIDFORMAT
  1
GRIDFORMAT_BEGIN
 90
        0
 91
        1
 62
     0
 92
       -2
340
0
 93
        0
 40
0.045
309
GRIDFORMAT_END
 95
        8
302
GRIDFORMAT
  1
GRIDFORMAT_BEGIN
 90
        0
 91
        1
 62
     0
 92
       -2
340
0
 93
        0
 40
0.045
309
GRIDFORMAT_END
 95
       16
302
GRIDFORMAT
  1
GRIDFORMAT_BEGIN
 90
        0
 91
        1
 62
     0
 92
       -2
340
0
 93
        0
 40
0.045
309
GRIDFORMAT_END
 95
       32
302
GRIDFORMAT
  1
GRIDFORMAT_BEGIN
 90
        0
 91
        1
 62
     0
 92
       -2
340
0
 93
        0
 40
0.045
309
GRIDFORMAT_END
309
TABLEFORMAT_END
  1
CELLSTYLE_BEGIN
 90
        3
 91
        2
300
_DATA
309
CELLSTYLE_END
  0
ENDSEC
  0
EOF
