  0
SECTION
  2
HEADER
  9
$ACADVER
  1
AC1009
  9
$DWGCODEPAGE
  3
ansi_1250
  9
$INSBASE
 10
0.0
 20
0.0
 30
0.0
  9
$EXTMIN
 10
-0.0000820000000008
 20
0.0
 30
0.0
  9
$EXTMAX
 10
594.000002
 20
420.000076
 30
0.0
  9
$LIMMIN
 10
0.0
 20
0.0
  9
$LIMMAX
 10
594.0
 20
420.0
  9
$ORTHOMODE
 70
     0
  9
$REGENMODE
 70
     1
  9
$FILLMODE
 70
     1
  9
$QTEXTMODE
 70
     0
  9
$MIRRTEXT
 70
     1
  9
$DRAGMODE
 70
     2
  9
$LTSCALE
 40
32.67
  9
$OSMODE
 70
   511
  9
$ATTMODE
 70
     1
  9
$TEXTSIZE
 40
0.2
  9
$TRACEWID
 40
0.05
  9
$TEXTSTYLE
  7
STANDARD
  9
$CLAYER
  8
0
  9
$CELTYPE
  6
BYLAYER
  9
$CECOLOR
 62
   256
  9
$DIMSCALE
 40
1.0
  9
$DIMASZ
 40
3.0
  9
$DIMEXO
 40
1.5
  9
$DIMDLI
 40
22.572
  9
$DIMRND
 40
0.0
  9
$DIMDLE
 40
0.0
  9
$DIMEXE
 40
3.0
  9
$DIMTP
 40
0.0
  9
$DIMTM
 40
0.0
  9
$DIMTXT
 40
2.0
  9
$DIMCEN
 40
5.346
  9
$DIMTSZ
 40
0.0
  9
$DIMTOL
 70
     0
  9
$DIMLIM
 70
     0
  9
$DIMTIH
 70
     1
  9
$DIMTOH
 70
     1
  9
$DIMSE1
 70
     0
  9
$DIMSE2
 70
     0
  9
$DIMTAD
 70
     0
  9
$DIMZIN
 70
     0
  9
$DIMBLK
  1
OPEN
  9
$DIMASO
 70
     1
  9
$DIMSHO
 70
     1
  9
$DIMPOST
  1

  9
$DIMAPOST
  1

  9
$DIMALT
 70
     0
  9
$DIMALTD
 70
     2
  9
$DIMALTF
 40
0.0393700787
  9
$DIMLFAC
 40
1.0
  9
$DIMTOFL
 70
     0
  9
$DIMTVP
 40
0.0
  9
$DIMTIX
 70
     0
  9
$DIMSOXD
 70
     0
  9
$DIMSAH
 70
     0
  9
$DIMBLK1
  1

  9
$DIMBLK2
  1

  9
$DIMSTYLE
  2
STANDARD
  9
$DIMCLRD
 70
     0
  9
$DIMCLRE
 70
     0
  9
$DIMCLRT
 70
     0
  9
$DIMTFAC
 40
1.0
  9
$DIMGAP
 40
0.09
  9
$LUNITS
 70
     2
  9
$LUPREC
 70
     4
  9
$SKETCHINC
 40
0.1
  9
$FILLETRAD
 40
0.5
  9
$AUNITS
 70
     0
  9
$AUPREC
 70
     0
  9
$MENU
  1
.
  9
$ELEVATION
 40
0.0
  9
$PELEVATION
 40
0.0
  9
$THICKNESS
 40
0.0
  9
$LIMCHECK
 70
     0
  9
$CHAMFERA
 40
0.0
  9
$CHAMFERB
 40
0.0
  9
$SKPOLY
 70
     0
  9
$TDCREATE
 40
2458878.601547755
  9
$TDUPDATE
 40
2458878.602213495
  9
$TDINDWG
 40
0.0006623032
  9
$TDUSRTIMER
 40
0.0006622917
  9
$USRTIMER
 70
     1
  9
$ANGBASE
 50
0.0
  9
$ANGDIR
 70
     0
  9
$PDMODE
 70
     3
  9
$PDSIZE
 40
0.3125
  9
$PLINEWID
 40
0.0
  9
$COORDS
 70
     1
  9
$SPLFRAME
 70
     0
  9
$SPLINETYPE
 70
     6
  9
$SPLINESEGS
 70
     8
  9
$ATTDIA
 70
     0
  9
$ATTREQ
 70
     1
  9
$HANDLING
 70
     1
  9
$HANDSEED
  5
2BD
  9
$SURFTAB1
 70
     6
  9
$SURFTAB2
 70
     6
  9
$SURFTYPE
 70
     6
  9
$SURFU
 70
     6
  9
$SURFV
 70
     6
  9
$UCSNAME
  2

  9
$UCSORG
 10
0.0
 20
0.0
 30
0.0
  9
$UCSXDIR
 10
1.0
 20
0.0
 30
0.0
  9
$UCSYDIR
 10
0.0
 20
1.0
 30
0.0
  9
$PUCSNAME
  2

  9
$PUCSORG
 10
0.0
 20
0.0
 30
0.0
  9
$PUCSXDIR
 10
1.0
 20
0.0
 30
0.0
  9
$PUCSYDIR
 10
0.0
 20
1.0
 30
0.0
  9
$USERI1
 70
     0
  9
$USERI2
 70
     0
  9
$USERI3
 70
     0
  9
$USERI4
 70
     0
  9
$USERI5
 70
     0
  9
$USERR1
 40
0.0
  9
$USERR2
 40
0.0
  9
$USERR3
 40
0.0
  9
$USERR4
 40
0.0
  9
$USERR5
 40
0.0
  9
$WORLDVIEW
 70
     1
  9
$SHADEDGE
 70
     3
  9
$SHADEDIF
 70
    70
  9
$TILEMODE
 70
     1
  9
$MAXACTVP
 70
    64
  9
$PLIMCHECK
 70
     0
  9
$PEXTMIN
 10
1.000000000000000E+20
 20
1.000000000000000E+20
 30
1.000000000000000E+20
  9
$PEXTMAX
 10
-1.000000000000000E+20
 20
-1.000000000000000E+20
 30
-1.000000000000000E+20
  9
$PLIMMIN
 10
0.0
 20
0.0
  9
$PLIMMAX
 10
0.0
 20
0.0
  9
$UNITMODE
 70
     0
  9
$VISRETAIN
 70
     1
  9
$PLINEGEN
 70
     0
  9
$PSLTSCALE
 70
     1
  0
ENDSEC
  0
SECTION
  2
TABLES
  0
TABLE
  2
VPORT
 70
     1
  0
VPORT
  2
*ACTIVE
 70
     0
 10
0.0
 20
0.0
 11
1.0
 21
1.0
 12
213.924629973994
 22
110.2060228356745
 13
0.0
 23
0.0
 14
0.5
 24
0.5
 15
0.5
 25
0.5
 16
0.0
 26
0.0
 36
1.0
 17
0.0
 27
0.0
 37
0.0
 40
632.1802805921559
 41
1.975124378109453
 42
50.0
 43
0.0
 44
0.0
 50
0.0
 51
0.0
 71
    16
 72
   100
 73
     1
 74
     3
 75
     0
 76
     0
 77
     0
 78
     0
  0
ENDTAB
  0
TABLE
  2
LTYPE
 70
     6
  0
LTYPE
  2
CONTINUOUS
 70
     0
  3
Solid line
 72
    65
 73
     0
 40
0.0
  0
LTYPE
  2
CENTER
 70
     0
  3
____ _ ____ _ ____ _ ____ _ ____ _ ____ _ ____
 72
    65
 73
     4
 40
0.6
 49
0.375
 49
-0.075
 49
0.075
 49
-0.075
  0
LTYPE
  2
HIDDEN
 70
     0
  3
- - - - - - - - - - - - - - - - - - - -
 72
    65
 73
     2
 40
0.2
 49
0.1
 49
-0.1
  0
LTYPE
  2
PHANTOM
 70
     0
  3
_____ _ _ _____ _ _ _____ _ _ _____
 72
    65
 73
     6
 40
0.8
 49
0.45
 49
-0.05
 49
0.1
 49
-0.05
 49
0.1
 49
-0.05
  0
LTYPE
  2
DOT
 70
     0
  3
. . . . . . . . . . . . . . . . . . . .
 72
    65
 73
     2
 40
0.2
 49
0.1
 49
-0.1
  0
LTYPE
  2
DASHED
 70
     0
  3
- - - - - - - - - - - - - - - - - - - -
 72
    65
 73
     2
 40
0.2
 49
0.1
 49
-0.1
  0
ENDTAB
  0
TABLE
  2
LAYER
 70
    13
  0
LAYER
  2
0
 70
     0
 62
     7
  6
CONTINUOUS
  0
LAYER
  2
DEFAULT_1
 70
     0
 62
     7
  6
CENTER
  0
LAYER
  2
DEFAULT_2
 70
     0
 62
     8
  6
HIDDEN
  0
LAYER
  2
DEFAULT_3
 70
     0
 62
     7
  6
PHANTOM
  0
LAYER
  2
1_AXES
 70
     0
 62
     7
  6
CONTINUOUS
  0
LAYER
  2
5_COURBES
 70
     0
 62
     7
  6
CONTINUOUS
  0
LAYER
  2
COORDINATE_SYSTEM_LAY
 70
     0
 62
     7
  6
CONTINUOUS
  0
LAYER
  2
COPY_GEOMETRY_LAY
 70
     0
 62
     7
  6
CONTINUOUS
  0
LAYER
  2
COURVES_LAY
 70
     0
 62
     7
  6
CONTINUOUS
  0
LAYER
  2
DTM_LAY
 70
     0
 62
     7
  6
CONTINUOUS
  0
LAYER
  2
HIDDEN
 70
     0
 62
     7
  6
CONTINUOUS
  0
LAYER
  2
INTERSECT
 70
     0
 62
     7
  6
CONTINUOUS
  0
LAYER
  2
DEFPOINTS
 70
     0
 62
     7
  6
CONTINUOUS
  0
ENDTAB
  0
TABLE
  2
STYLE
 70
    11
  0
STYLE
  2
STANDARD
 70
     0
 40
0.0
 41
0.8
 50
0.0
 71
     0
 42
0.2
  3
txt
  4

  0
STYLE
  2
TEXTSTYLE_1
 70
     0
 40
0.0
 41
0.8
 50
0.0
 71
     0
 42
0.2
  3
gdt
  4

  0
STYLE
  2
TEXTSTYLE_2
 70
     0
 40
0.0
 41
0.6
 50
0.0
 71
     0
 42
0.2
  3
txt
  4

  0
STYLE
  2
TEXTSTYLE_3
 70
     0
 40
0.0
 41
1.0
 50
0.0
 71
     0
 42
0.2
  3
txt
  4

  0
STYLE
  2
TEXTSTYLE_4
 70
     0
 40
0.0
 41
1.0
 50
0.0
 71
     0
 42
0.2
  3
shanno.ttf
  4

  0
STYLE
  2
TEXTSTYLE_5
 70
     0
 40
0.0
 41
1.0
 50
0.0
 71
     0
 42
0.2
  3
shanno.ttf
  4

  0
STYLE
  2
TEXTSTYLE_6
 70
     0
 40
0.0
 41
1.0
 50
0.0
 71
     0
 42
0.2
  3
shannob.ttf
  4

  0
STYLE
  2
TEXTSTYLE_7
 70
     0
 40
0.0
 41
1.0
 50
0.0
 71
     0
 42
0.2
  3
symbol_asme.ttf
  4

  0
STYLE
  2
TEXTSTYLE_8
 70
     0
 40
0.0
 41
1.0
 50
0.0
 71
     0
 42
0.2
  3
symbol_asme.ttf
  4

  0
STYLE
  2
TEXTSTYLE_9
 70
     0
 40
0.0
 41
1.0
 50
0.0
 71
     0
 42
0.2
  3
shannob.ttf
  4

  0
STYLE
  2
TEXTSTYLE_10
 70
     0
 40
0.0
 41
1.0
 50
0.0
 71
     0
 42
0.2
  3
shannob.ttf
  4

  0
ENDTAB
  0
TABLE
  2
VIEW
 70
     0
  0
ENDTAB
  0
TABLE
  2
UCS
 70
     0
  0
ENDTAB
  0
TABLE
  2
APPID
 70
     1
  0
APPID
  2
ACAD
 70
     0
  0
ENDTAB
  0
TABLE
  2
DIMSTYLE
 70
     1
  0
DIMSTYLE
  2
STANDARD
 70
     0
  3

  4

  5

  6

  7

 40
1.0
 41
0.18
 42
0.0625
 43
0.38
 44
0.18
 45
0.0
 46
0.0
 47
0.0
 48
0.0
140
0.18
141
0.09
142
0.0
143
25.4
144
1.0
145
0.0
146
1.0
147
0.09
 71
     0
 72
     0
 73
     1
 74
     1
 75
     0
 76
     0
 77
     0
 78
     0
170
     0
171
     2
172
     0
173
     0
174
     0
175
     0
176
     0
177
     0
178
     0
  0
ENDTAB
  0
ENDSEC
  0
SECTION
  2
BLOCKS
  0
BLOCK
  8
0
  2
$MODEL_SPACE
 70
     0
 10
0.0
 20
0.0
 30
0.0
  3
$MODEL_SPACE
  1

  0
ENDBLK
  5
271
  8
0
  0
BLOCK
 67
     1
  8
0
  2
$PAPER_SPACE
 70
     0
 10
0.0
 20
0.0
 30
0.0
  3
$PAPER_SPACE
  1

  0
ENDBLK
  5
273
 67
     1
  8
0
  0
BLOCK
  8
0
  2
REPERE_ORIENTATION_BL1
 70
     0
 10
297.0047509462
 20
11.8841899578
 30
0.0
  3
REPERE_ORIENTATION_BL1
  1

  0
LINE
  5
47
  8
0
  6
CONTINUOUS
 62
     7
 10
297.0047509462
 20
11.8841899578
 30
0.0
 11
293.0047509462
 21
15.8841899578
 31
0.0
  0
LINE
  5
48
  8
0
  6
CONTINUOUS
 62
     7
 10
301.0047509462
 20
15.8841899578
 30
0.0
 11
293.0047509462
 21
15.8841899578
 31
0.0
  0
LINE
  5
49
  8
0
  6
CONTINUOUS
 62
     7
 10
297.0047509462
 20
11.8841899578
 30
0.0
 11
301.0047509462
 21
15.8841899578
 31
0.0
  0
LINE
  5
4A
  8
0
  6
CONTINUOUS
 62
     7
 10
293.0047509462
 20
15.8841899578
 30
0.0
 11
297.0047509462
 21
4.8841899578
 31
0.0
  0
LINE
  5
4B
  8
0
  6
CONTINUOUS
 62
     7
 10
297.0047509462
 20
4.8841899578
 30
0.0
 11
301.0047509462
 21
15.8841899578
 31
0.0
  0
LINE
  5
4C
  8
0
  6
CONTINUOUS
 62
     7
 10
297.0047509462
 20
18.8841899578
 30
0.0
 11
297.0047509462
 21
15.8841899578
 31
0.0
  0
LINE
  5
4D
  8
0
  6
CONTINUOUS
 62
     7
 10
297.0047509462
 20
11.8841899578
 30
0.0
 11
297.0047509462
 21
4.8841899578
 31
0.0
  0
LINE
  5
4E
  8
0
  6
CONTINUOUS
 62
     7
 10
300.0047509462
 20
14.8841899578
 30
0.0
 11
294.0047509462
 21
14.8841899578
 31
0.0
  0
SOLID
  5
4F
  8
0
  6
CONTINUOUS
 62
     7
 10
293.0047509462
 20
15.8841899578
 30
0.0
 11
297.0047509462
 21
11.8841899578
 31
0.0
 12
301.0047509462
 22
15.8841899578
 32
0.0
 13
301.0047509462
 23
15.8841899578
 33
0.0
  0
ENDBLK
  5
50
  8
0
  6
BYBLOCK
 62
     0
  0
BLOCK
  8
0
  2
MARGEA2_BL0
 70
     0
 10
296.99996
 20
210.000076
 30
0.0
  3
MARGEA2_BL0
  1

  0
TEXT
  5
53
  8
0
  6
CONTINUOUS
 62
     2
 10
109.625002
 20
10.000076
 30
0.0
 40
3.5
  1
7
 51
0.000018724
  7
TEXTSTYLE_3
  0
TEXT
  5
54
  8
0
  6
CONTINUOUS
 62
     2
 10
35.375002
 20
10.000076
 30
0.0
 40
3.5
  1
8
 51
0.000018724
  7
TEXTSTYLE_3
  0
TEXT
  5
55
  8
0
  6
CONTINUOUS
 62
     2
 10
480.875002
 20
10.000076
 30
0.0
 40
3.5
  1
2
 51
0.000018724
  7
TEXTSTYLE_3
  0
TEXT
  5
56
  8
0
  6
CONTINUOUS
 62
     2
 10
555.125002
 20
10.000076
 30
0.0
 40
3.5
  1
1
 51
0.000018724
  7
TEXTSTYLE_3
  0
TEXT
  5
57
  8
0
  6
CONTINUOUS
 62
     2
 10
10.000002
 20
234.500076
 30
0.0
 40
3.5
  1
D
 51
0.000018724
  7
TEXTSTYLE_3
  0
TEXT
  5
58
  8
0
  6
CONTINUOUS
 62
     2
 10
10.000002
 20
287.000076
 30
0.0
 40
3.5
  1
C
 51
0.000018724
  7
TEXTSTYLE_3
  0
TEXT
  5
59
  8
0
  6
CONTINUOUS
 62
     2
 10
10.000002
 20
339.500076
 30
0.0
 40
3.5
  1
B
 51
0.000018724
  7
TEXTSTYLE_3
  0
TEXT
  5
5A
  8
0
  6
CONTINUOUS
 62
     2
 10
10.000002
 20
392.000076
 30
0.0
 40
3.5
  1
A
 51
0.000018724
  7
TEXTSTYLE_3
  0
TEXT
  5
5B
  8
0
  6
CONTINUOUS
 62
     2
 10
38.875002
 20
406.500076
 30
0.0
 40
3.5
  1
8
 50
90.0
 51
0.000018724
  7
TEXTSTYLE_3
  0
TEXT
  5
5C
  8
0
  6
CONTINUOUS
 62
     2
 10
113.125002
 20
406.500076
 30
0.0
 40
3.5
  1
7
 50
90.0
 51
0.000018724
  7
TEXTSTYLE_3
  0
TEXT
  5
5D
  8
0
  6
CONTINUOUS
 62
     2
 10
187.375002
 20
406.500076
 30
0.0
 40
3.5
  1
6
 50
90.0
 51
0.000018724
  7
TEXTSTYLE_3
  0
TEXT
  5
5E
  8
0
  6
CONTINUOUS
 62
     2
 10
261.625002
 20
406.500076
 30
0.0
 40
3.5
  1
5
 50
90.0
 51
0.000018724
  7
TEXTSTYLE_3
  0
TEXT
  5
5F
  8
0
  6
CONTINUOUS
 62
     2
 10
589.000002
 20
234.500076
 30
0.0
 40
3.5
  1
D
 50
90.0
 51
0.000018724
  7
TEXTSTYLE_3
  0
TEXT
  5
60
  8
0
  6
CONTINUOUS
 62
     2
 10
589.000002
 20
287.000076
 30
0.0
 40
3.5
  1
C
 50
90.0
 51
0.000018724
  7
TEXTSTYLE_3
  0
TEXT
  5
61
  8
0
  6
CONTINUOUS
 62
     2
 10
589.000002
 20
339.500076
 30
0.0
 40
3.5
  1
B
 50
90.0
 51
0.000018724
  7
TEXTSTYLE_3
  0
TEXT
  5
62
  8
0
  6
CONTINUOUS
 62
     2
 10
589.000002
 20
392.000076
 30
0.0
 40
3.5
  1
A
 50
90.0
 51
0.000018724
  7
TEXTSTYLE_3
  0
TEXT
  5
63
  8
0
  6
CONTINUOUS
 62
     2
 10
335.875002
 20
406.500076
 30
0.0
 40
3.5
  1
4
 50
90.0
 51
0.000018724
  7
TEXTSTYLE_3
  0
TEXT
  5
64
  8
0
  6
CONTINUOUS
 62
     2
 10
410.125002
 20
406.500076
 30
0.0
 40
3.5
  1
3
 50
90.0
 51
0.000018724
  7
TEXTSTYLE_3
  0
TEXT
  5
65
  8
0
  6
CONTINUOUS
 62
     2
 10
484.375002
 20
406.500076
 30
0.0
 40
3.5
  1
2
 50
90.0
 51
0.000018724
  7
TEXTSTYLE_3
  0
TEXT
  5
66
  8
0
  6
CONTINUOUS
 62
     2
 10
10.000002
 20
24.500076
 30
0.0
 40
3.5
  1
H
 51
0.000018724
  7
TEXTSTYLE_3
  0
TEXT
  5
67
  8
0
  6
CONTINUOUS
 62
     2
 10
10.000002
 20
77.000076
 30
0.0
 40
3.5
  1
G
 51
0.000018724
  7
TEXTSTYLE_3
  0
TEXT
  5
68
  8
0
  6
CONTINUOUS
 62
     2
 10
10.000002
 20
129.500076
 30
0.0
 40
3.5
  1
F
 51
0.000018724
  7
TEXTSTYLE_3
  0
TEXT
  5
69
  8
0
  6
CONTINUOUS
 62
     2
 10
10.000002
 20
182.000076
 30
0.0
 40
3.5
  1
E
 51
0.000018724
  7
TEXTSTYLE_3
  0
TEXT
  5
6A
  8
0
  6
CONTINUOUS
 62
     2
 10
589.000002
 20
182.000076
 30
0.0
 40
3.5
  1
E
 50
90.0
 51
0.000018724
  7
TEXTSTYLE_3
  0
TEXT
  5
6B
  8
0
  6
CONTINUOUS
 62
     2
 10
589.000002
 20
129.500076
 30
0.0
 40
3.5
  1
F
 50
90.0
 51
0.000018724
  7
TEXTSTYLE_3
  0
TEXT
  5
6C
  8
0
  6
CONTINUOUS
 62
     2
 10
589.000002
 20
77.000076
 30
0.0
 40
3.5
  1
G
 50
90.0
 51
0.000018724
  7
TEXTSTYLE_3
  0
TEXT
  5
6D
  8
0
  6
CONTINUOUS
 62
     2
 10
589.000002
 20
24.500076
 30
0.0
 40
3.5
  1
H
 50
90.0
 51
0.000018724
  7
TEXTSTYLE_3
  0
LINE
  5
6E
  8
0
  6
CONTINUOUS
 62
     7
 10
594.000002
 20
0.000076
 30
0.0
 11
594.000002
 21
420.000076
 31
0.0
  0
LINE
  5
6F
  8
0
  6
CONTINUOUS
 62
     7
 10
594.000002
 20
420.000076
 30
0.0
 11
0.000002
 21
420.000076
 31
0.0
  0
LINE
  5
70
  8
0
  6
CONTINUOUS
 62
     7
 10
0.000002
 20
0.000076
 30
0.0
 11
0.000002
 21
420.000076
 31
0.0
  0
LINE
  5
71
  8
0
  6
CONTINUOUS
 62
     7
 10
594.000002
 20
0.000076
 30
0.0
 11
0.000002
 21
0.000076
 31
0.0
  0
LINE
  5
72
  8
0
  6
CONTINUOUS
 62
     7
 10
10.000002
 20
0.000076
 30
0.0
 11
0.000002
 21
10.000076
 31
0.0
  0
LINE
  5
73
  8
0
  6
CONTINUOUS
 62
     7
 10
0.000002
 20
10.000076
 30
0.0
 11
0.000002
 21
0.000076
 31
0.0
  0
LINE
  5
74
  8
0
  6
CONTINUOUS
 62
     7
 10
0.000002
 20
0.000076
 30
0.0
 11
10.000002
 21
0.000076
 31
0.0
  0
LINE
  5
75
  8
0
  6
CONTINUOUS
 62
     7
 10
0.000002
 20
410.000076
 30
0.0
 11
10.000002
 21
420.000076
 31
0.0
  0
LINE
  5
76
  8
0
  6
CONTINUOUS
 62
     7
 10
10.000002
 20
420.000076
 30
0.0
 11
0.000002
 21
420.000076
 31
0.0
  0
LINE
  5
77
  8
0
  6
CONTINUOUS
 62
     7
 10
0.000002
 20
420.000076
 30
0.0
 11
0.000002
 21
410.000076
 31
0.0
  0
LINE
  5
78
  8
0
  6
CONTINUOUS
 62
     7
 10
584.000002
 20
0.000076
 30
0.0
 11
594.000002
 21
10.000076
 31
0.0
  0
LINE
  5
79
  8
0
  6
CONTINUOUS
 62
     7
 10
594.000002
 20
10.000076
 30
0.0
 11
594.000002
 21
0.000076
 31
0.0
  0
LINE
  5
7A
  8
0
  6
CONTINUOUS
 62
     7
 10
594.000002
 20
0.000076
 30
0.0
 11
584.000002
 21
0.000076
 31
0.0
  0
LINE
  5
7B
  8
0
  6
CONTINUOUS
 62
     7
 10
594.000002
 20
410.000076
 30
0.0
 11
584.000002
 21
420.000076
 31
0.0
  0
LINE
  5
7C
  8
0
  6
CONTINUOUS
 62
     7
 10
584.000002
 20
420.000076
 30
0.0
 11
594.000002
 21
420.000076
 31
0.0
  0
LINE
  5
7D
  8
0
  6
CONTINUOUS
 62
     7
 10
594.000002
 20
420.000076
 30
0.0
 11
594.000002
 21
410.000076
 31
0.0
  0
LINE
  5
7E
  8
0
  6
CONTINUOUS
 62
     7
 10
0.000002
 20
10.000076
 30
0.0
 11
10.000002
 21
0.000076
 31
0.0
  0
LINE
  5
7F
  8
0
  6
CONTINUOUS
 62
     7
 10
594.000002
 20
10.000076
 30
0.0
 11
584.000002
 21
0.000076
 31
0.0
  0
LINE
  5
80
  8
0
  6
CONTINUOUS
 62
     7
 10
594.0
 20
0.000078
 30
0.0
 11
594.000002
 21
420.000076
 31
0.0
  0
LINE
  5
81
  8
0
  6
CONTINUOUS
 62
     7
 10
584.000002
 20
15.000076
 30
0.0
 11
584.000002
 21
405.000076
 31
0.0
  0
LINE
  5
82
  8
0
  6
CONTINUOUS
 62
     7
 10
519.750002
 20
410.000076
 30
0.0
 11
519.750002
 21
405.000076
 31
0.0
  0
LINE
  5
83
  8
0
  6
CONTINUOUS
 62
     7
 10
519.750002
 20
10.000076
 30
0.0
 11
519.750002
 21
15.000076
 31
0.0
  0
LINE
  5
84
  8
0
  6
CONTINUOUS
 62
     7
 10
594.000002
 20
0.000076
 30
0.0
 11
-0.000082
 21
0.000078
 31
0.0
  0
LINE
  5
85
  8
0
  6
CONTINUOUS
 62
     7
 10
397.000002
 20
12.000076
 30
0.0
 11
197.000002
 21
12.000076
 31
0.0
  0
LINE
  5
86
  8
0
  6
CONTINUOUS
 62
     7
 10
15.000002
 20
15.000076
 30
0.0
 11
584.000002
 21
15.000076
 31
0.0
  0
LINE
  5
87
  8
0
  6
CONTINUOUS
 62
     7
 10
10.000002
 20
52.500076
 30
0.0
 11
15.000002
 21
52.500076
 31
0.0
  0
LINE
  5
88
  8
0
  6
CONTINUOUS
 62
     7
 10
589.000002
 20
52.500076
 30
0.0
 11
584.000002
 21
52.500076
 31
0.0
  0
LINE
  5
89
  8
0
  6
CONTINUOUS
 62
     7
 10
445.500002
 20
410.000076
 30
0.0
 11
445.500002
 21
405.000076
 31
0.0
  0
LINE
  5
8A
  8
0
  6
CONTINUOUS
 62
     7
 10
445.500002
 20
10.000076
 30
0.0
 11
445.500002
 21
15.000076
 31
0.0
  0
LINE
  5
8B
  8
0
  6
CONTINUOUS
 62
     7
 10
10.000002
 20
105.000076
 30
0.0
 11
15.000002
 21
105.000076
 31
0.0
  0
LINE
  5
8C
  8
0
  6
CONTINUOUS
 62
     7
 10
589.000002
 20
105.000076
 30
0.0
 11
584.000002
 21
105.000076
 31
0.0
  0
LINE
  5
8D
  8
0
  6
CONTINUOUS
 62
     7
 10
397.000002
 20
10.000076
 30
0.0
 11
397.000002
 21
15.000076
 31
0.0
  0
LINE
  5
8E
  8
0
  6
CONTINUOUS
 62
     7
 10
387.000002
 20
12.000076
 30
0.0
 11
387.000002
 21
15.000076
 31
0.0
  0
LINE
  5
8F
  8
0
  6
CONTINUOUS
 62
     7
 10
377.000002
 20
12.000076
 30
0.0
 11
377.000002
 21
15.000076
 31
0.0
  0
LINE
  5
90
  8
0
  6
CONTINUOUS
 62
     7
 10
371.250002
 20
410.000076
 30
0.0
 11
371.250002
 21
405.000076
 31
0.0
  0
LINE
  5
91
  8
0
  6
CONTINUOUS
 62
     7
 10
10.000002
 20
157.500076
 30
0.0
 11
15.000002
 21
157.500076
 31
0.0
  0
LINE
  5
92
  8
0
  6
CONTINUOUS
 62
     7
 10
589.000002
 20
157.500076
 30
0.0
 11
584.000002
 21
157.500076
 31
0.0
  0
LINE
  5
93
  8
0
  6
CONTINUOUS
 62
     7
 10
367.000002
 20
12.000076
 30
0.0
 11
367.000002
 21
15.000076
 31
0.0
  0
LINE
  5
94
  8
0
  6
CONTINUOUS
 62
     7
 10
357.000002
 20
12.000076
 30
0.0
 11
357.000002
 21
15.000076
 31
0.0
  0
LINE
  5
95
  8
0
  6
CONTINUOUS
 62
     7
 10
347.000002
 20
10.000076
 30
0.0
 11
347.000002
 21
15.000076
 31
0.0
  0
LINE
  5
96
  8
0
  6
CONTINUOUS
 62
     7
 10
337.000002
 20
12.000076
 30
0.0
 11
337.000002
 21
15.000076
 31
0.0
  0
LINE
  5
97
  8
0
  6
CONTINUOUS
 62
     7
 10
327.000002
 20
12.000076
 30
0.0
 11
327.000002
 21
15.000076
 31
0.0
  0
LINE
  5
98
  8
0
  6
CONTINUOUS
 62
     7
 10
0.000002
 20
210.000076
 30
0.0
 11
15.000002
 21
210.000076
 31
0.0
  0
LINE
  5
99
  8
0
  6
CONTINUOUS
 62
     7
 10
317.000002
 20
12.000076
 30
0.0
 11
317.000002
 21
15.000076
 31
0.0
  0
LINE
  5
9A
  8
0
  6
CONTINUOUS
 62
     7
 10
307.000002
 20
12.000076
 30
0.0
 11
307.000002
 21
15.000076
 31
0.0
  0
LINE
  5
9B
  8
0
  6
CONTINUOUS
 62
     7
 10
297.000002
 20
420.000076
 30
0.0
 11
297.000002
 21
405.000076
 31
0.0
  0
LINE
  5
9C
  8
0
  6
CONTINUOUS
 62
     7
 10
297.000002
 20
15.000076
 30
0.0
 11
297.000002
 21
0.000076
 31
0.0
  0
LINE
  5
9D
  8
0
  6
CONTINUOUS
 62
     7
 10
287.000002
 20
12.000076
 30
0.0
 11
287.000002
 21
15.000076
 31
0.0
  0
LINE
  5
9E
  8
0
  6
CONTINUOUS
 62
     7
 10
277.000002
 20
12.000076
 30
0.0
 11
277.000002
 21
15.000076
 31
0.0
  0
LINE
  5
9F
  8
0
  6
CONTINUOUS
 62
     7
 10
267.000002
 20
12.000076
 30
0.0
 11
267.000002
 21
15.000076
 31
0.0
  0
LINE
  5
A0
  8
0
  6
CONTINUOUS
 62
     7
 10
257.000002
 20
12.000076
 30
0.0
 11
257.000002
 21
15.000076
 31
0.0
  0
LINE
  5
A1
  8
0
  6
CONTINUOUS
 62
     7
 10
247.000002
 20
10.000076
 30
0.0
 11
247.000002
 21
15.000076
 31
0.0
  0
LINE
  5
A2
  8
0
  6
CONTINUOUS
 62
     7
 10
10.000002
 20
262.500076
 30
0.0
 11
15.000002
 21
262.500076
 31
0.0
  0
LINE
  5
A3
  8
0
  6
CONTINUOUS
 62
     7
 10
237.000002
 20
12.000076
 30
0.0
 11
237.000002
 21
15.000076
 31
0.0
  0
LINE
  5
A4
  8
0
  6
CONTINUOUS
 62
     7
 10
227.000002
 20
12.000076
 30
0.0
 11
227.000002
 21
15.000076
 31
0.0
  0
LINE
  5
A5
  8
0
  6
CONTINUOUS
 62
     7
 10
222.750002
 20
410.000076
 30
0.0
 11
222.750002
 21
405.000076
 31
0.0
  0
LINE
  5
A6
  8
0
  6
CONTINUOUS
 62
     7
 10
217.000002
 20
12.000076
 30
0.0
 11
217.000002
 21
15.000076
 31
0.0
  0
LINE
  5
A7
  8
0
  6
CONTINUOUS
 62
     7
 10
207.000002
 20
12.000076
 30
0.0
 11
207.000002
 21
15.000076
 31
0.0
  0
LINE
  5
A8
  8
0
  6
CONTINUOUS
 62
     7
 10
197.000002
 20
10.000076
 30
0.0
 11
197.000002
 21
15.000076
 31
0.0
  0
LINE
  5
A9
  8
0
  6
CONTINUOUS
 62
     7
 10
10.000002
 20
315.000076
 30
0.0
 11
15.000002
 21
315.000076
 31
0.0
  0
LINE
  5
AA
  8
0
  6
CONTINUOUS
 62
     7
 10
589.000002
 20
315.000076
 30
0.0
 11
584.000002
 21
315.000076
 31
0.0
  0
LINE
  5
AB
  8
0
  6
CONTINUOUS
 62
     7
 10
148.500002
 20
410.000076
 30
0.0
 11
148.500002
 21
405.000076
 31
0.0
  0
LINE
  5
AC
  8
0
  6
CONTINUOUS
 62
     7
 10
148.500002
 20
10.000076
 30
0.0
 11
148.500002
 21
15.000076
 31
0.0
  0
LINE
  5
AD
  8
0
  6
CONTINUOUS
 62
     7
 10
10.000002
 20
367.500076
 30
0.0
 11
15.000002
 21
367.500076
 31
0.0
  0
LINE
  5
AE
  8
0
  6
CONTINUOUS
 62
     7
 10
589.000002
 20
367.500076
 30
0.0
 11
584.000002
 21
367.500076
 31
0.0
  0
LINE
  5
AF
  8
0
  6
CONTINUOUS
 62
     7
 10
584.000002
 20
405.000076
 30
0.0
 11
15.000002
 21
405.000076
 31
0.0
  0
LINE
  5
B0
  8
0
  6
CONTINUOUS
 62
     7
 10
594.0
 20
420.0
 30
0.0
 11
-0.000082
 21
420.0
 31
0.0
  0
LINE
  5
B1
  8
0
  6
CONTINUOUS
 62
     7
 10
594.000002
 20
420.000076
 30
0.0
 11
0.000002
 21
420.000076
 31
0.0
  0
LINE
  5
B2
  8
0
  6
CONTINUOUS
 62
     7
 10
74.250002
 20
410.000076
 30
0.0
 11
74.250002
 21
405.000076
 31
0.0
  0
LINE
  5
B3
  8
0
  6
CONTINUOUS
 62
     7
 10
74.250002
 20
10.000076
 30
0.0
 11
74.250002
 21
15.000076
 31
0.0
  0
LINE
  5
B4
  8
0
  6
CONTINUOUS
 62
     7
 10
15.000002
 20
405.000076
 30
0.0
 11
15.000002
 21
15.000076
 31
0.0
  0
LINE
  5
B5
  8
0
  6
CONTINUOUS
 62
     7
 10
0.000002
 20
420.000076
 30
0.0
 11
0.000002
 21
0.000076
 31
0.0
  0
LINE
  5
B6
  8
0
  6
CONTINUOUS
 62
     7
 10
-0.000082
 20
0.000078
 30
0.0
 11
-0.000082
 21
420.0
 31
0.0
  0
LINE
  5
B7
  8
0
  6
CONTINUOUS
 62
     7
 10
594.000002
 20
410.000076
 30
0.0
 11
584.000002
 21
420.000076
 31
0.0
  0
LINE
  5
B8
  8
0
  6
CONTINUOUS
 62
     7
 10
0.000002
 20
410.000076
 30
0.0
 11
10.000002
 21
420.000076
 31
0.0
  0
SOLID
  5
B9
  8
0
  6
CONTINUOUS
 62
     7
 10
10.000002
 20
0.000076
 30
0.0
 11
0.000002
 21
10.000076
 31
0.0
 12
0.000002
 22
0.000076
 32
0.0
 13
0.000002
 23
0.000076
 33
0.0
  0
SOLID
  5
BA
  8
0
  6
CONTINUOUS
 62
     7
 10
0.000002
 20
410.000076
 30
0.0
 11
10.000002
 21
420.000076
 31
0.0
 12
0.000002
 22
420.000076
 32
0.0
 13
0.000002
 23
420.000076
 33
0.0
  0
SOLID
  5
BB
  8
0
  6
CONTINUOUS
 62
     7
 10
584.000002
 20
0.000076
 30
0.0
 11
594.000002
 21
10.000076
 31
0.0
 12
594.000002
 22
0.000076
 32
0.0
 13
594.000002
 23
0.000076
 33
0.0
  0
SOLID
  5
BC
  8
0
  6
CONTINUOUS
 62
     7
 10
594.000002
 20
410.000076
 30
0.0
 11
584.000002
 21
420.000076
 31
0.0
 12
594.000002
 22
420.000076
 32
0.0
 13
594.000002
 23
420.000076
 33
0.0
  0
LINE
  5
BD
  8
0
  6
CONTINUOUS
 62
     7
 10
589.000002
 20
262.500076
 30
0.0
 11
584.000002
 21
262.500076
 31
0.0
  0
LINE
  5
BE
  8
0
  6
CONTINUOUS
 62
     7
 10
594.000002
 20
210.000076
 30
0.0
 11
584.000002
 21
210.000076
 31
0.0
  0
ENDBLK
  5
BF
  8
0
  6
BYBLOCK
 62
     0
  0
BLOCK
  8
0
  2
_OPEN
 70
     0
 10
0.0
 20
0.0
 30
0.0
  3
_OPEN
  1

  0
LINE
  5
C2
  8
0
  6
BYBLOCK
 62
     0
 10
0.0
 20
0.0
 30
0.0
 11
-1.0
 21
0.25
 31
0.0
  0
LINE
  5
C3
  8
0
  6
BYBLOCK
 62
     0
 10
-1.0
 20
-0.25
 30
0.0
 11
0.0
 21
0.0
 31
0.0
  0
LINE
  5
C4
  8
0
  6
BYBLOCK
 62
     0
 10
-1.0
 20
0.0
 30
0.0
 11
0.0
 21
0.0
 31
0.0
  0
ENDBLK
  5
C5
  8
0
  6
BYBLOCK
 62
     0
  0
BLOCK
  8
0
  2
*D3
 70
     1
 10
0.0
 20
0.0
 30
0.0
  3
*D3
  1

  0
TEXT
  5
C8
  8
0
  6
CONTINUOUS
 62
     2
 10
82.6725635519
 20
153.2497133167
 30
0.0
 40
2.0
  1
0
 41
0.8
 72
     2
 11
83.4725635519
 21
153.2497133167
 31
0.0
  0
LINE
  5
C9
  8
0
  6
CONTINUOUS
 62
     2
 10
94.0041697066
 20
152.7497133167
 30
0.0
 11
84.4725635519
 21
152.7497133167
 31
0.0
  0
ENDBLK
  5
CA
  8
0
  6
BYBLOCK
 62
     0
  0
BLOCK
  8
0
  2
*D4
 70
     1
 10
0.0
 20
0.0
 30
0.0
  3
*D4
  1

  0
TEXT
  5
CD
  8
0
  6
CONTINUOUS
 62
     2
 10
553.6930741902
 20
179.2497133167
 30
0.0
 40
2.0
  1
26
 41
0.8
  0
LINE
  5
CE
  8
0
  6
CONTINUOUS
 62
     2
 10
539.8704337066
 20
178.7497133167
 30
0.0
 11
552.6930741902
 21
178.7497133167
 31
0.0
  0
ENDBLK
  5
CF
  8
0
  6
BYBLOCK
 62
     0
  0
BLOCK
  8
0
  2
*D5
 70
     1
 10
0.0
 20
0.0
 30
0.0
  3
*D5
  1

  0
TEXT
  5
D2
  8
0
  6
CONTINUOUS
 62
     2
 10
553.6930741902
 20
196.2497133167
 30
0.0
 40
2.0
  1
43
 41
0.8
  0
LINE
  5
D3
  8
0
  6
CONTINUOUS
 62
     2
 10
539.8704337066
 20
195.7497133167
 30
0.0
 11
552.6930741902
 21
195.7497133167
 31
0.0
  0
ENDBLK
  5
D4
  8
0
  6
BYBLOCK
 62
     0
  0
BLOCK
  8
0
  2
*D6
 70
     1
 10
0.0
 20
0.0
 30
0.0
  3
*D6
  1

  0
TEXT
  5
D7
  8
0
  6
CONTINUOUS
 62
     2
 10
80.90597010633334
 20
157.2497133167
 30
0.0
 40
2.0
  1
4
 41
0.8
 72
     2
 11
81.972636773
 21
157.2497133167
 31
0.0
  0
LINE
  5
D8
  8
0
  6
CONTINUOUS
 62
     2
 10
120.8704337066
 20
156.7497133167
 30
0.0
 11
82.972636773
 21
156.7497133167
 31
0.0
  0
ENDBLK
  5
D9
  8
0
  6
BYBLOCK
 62
     0
  0
BLOCK
  8
0
  2
*D7
 70
     1
 10
0.0
 20
0.0
 30
0.0
  3
*D7
  1

  0
TEXT
  5
DC
  8
0
  6
CONTINUOUS
 62
     2
 10
425.1419507256
 20
212.6901665059
 30
0.0
 40
2.0
  1
15
 50
90.0
 41
0.8
  0
LINE
  5
DD
  8
0
  6
CONTINUOUS
 62
     2
 10
508.3043269595
 20
202.7497133167
 30
0.0
 11
422.6419507256
 21
202.7497133167
 31
0.0
  0
LINE
  5
DE
  8
0
  6
CONTINUOUS
 62
     2
 10
425.6419507256
 20
202.7497133167
 30
0.0
 11
425.6419507256
 21
215.8901665059
 31
0.0
  0
LINE
  5
DF
  8
0
  6
CONTINUOUS
 62
     2
 10
425.6419507256
 20
215.8901665059
 30
0.0
 11
425.6419507256
 21
195.2497133167
 31
0.0
  0
LINE
  5
E0
  8
0
  6
CONTINUOUS
 62
     2
 10
425.6419507256
 20
187.7497133167
 30
0.0
 11
425.6419507256
 21
183.7497133167
 31
0.0
  0
LINE
  5
E1
  8
0
  6
CONTINUOUS
 62
     2
 10
425.6419507256
 20
183.7497133167
 30
0.0
 11
425.6419507256
 21
195.2497133167
 31
0.0
  0
INSERT
  5
E2
  8
0
  6
CONTINUOUS
 62
     2
  2
_OPEN
 10
425.6419507256
 20
202.7497133167
 30
0.0
 41
3.0
 42
3.0
 43
3.0
 50
270.0
  0
INSERT
  5
E3
  8
0
  6
CONTINUOUS
 62
     2
  2
_OPEN
 10
425.6419507256
 20
187.7497133167
 30
0.0
 41
3.0
 42
3.0
 43
3.0
 50
90.0
  0
ENDBLK
  5
E4
  8
0
  6
BYBLOCK
 62
     0
  0
BLOCK
  8
0
  2
*D8
 70
     1
 10
0.0
 20
0.0
 30
0.0
  3
*D8
  1

  0
TEXT
  5
E7
  8
0
  6
CONTINUOUS
 62
     2
 10
139.9445867318
 20
209.0591925686
 30
0.0
 40
2.0
  1
R
 50
74.03222130389999
 41
0.8
  0
TEXT
  5
E8
  8
0
  6
CONTINUOUS
 62
     2
 10
140.3847414992
 20
210.5974590542
 30
0.0
 40
2.0
  1
20
 50
74.03222130389999
 41
0.8
  0
LINE
  5
E9
  8
0
  6
CONTINUOUS
 62
     2
 10
138.4384750457
 20
201.978044387
 30
0.0
 11
141.7457593106
 21
213.5364436607
 31
0.0
  0
INSERT
  5
EA
  8
0
  6
CONTINUOUS
 62
     2
  2
_OPEN
 10
138.4384750457
 20
201.978044387
 30
0.0
 41
3.0
 42
3.0
 43
3.0
 50
254.0322213039
  0
ENDBLK
  5
EB
  8
0
  6
BYBLOCK
 62
     0
  0
BLOCK
  8
0
  2
*D9
 70
     1
 10
0.0
 20
0.0
 30
0.0
  3
*D9
  1

  0
TEXT
  5
EE
  8
0
  6
CONTINUOUS
 62
     2
 10
170.9939920890824
 20
194.2601021468607
 30
0.0
 40
2.0
  1
R
 50
79.6253892229
 41
0.8
 72
     1
 11
171.0900365061
 21
194.7847162092
 31
0.0
  0
TEXT
  5
EF
  8
0
  6
CONTINUOUS
 62
     2
 10
171.3061364444103
 20
195.9650978494365
 30
0.0
 40
2.0
  1
20
 50
79.6253892229
 41
0.8
 72
     1
 11
171.5222363827
 21
197.1454794897
 31
0.0
  0
LINE
  5
F0
  8
0
  6
CONTINUOUS
 62
     2
 10
170.370265129
 20
188.076685979
 30
0.0
 11
172.3021953172
 21
198.6292800358
 31
0.0
  0
INSERT
  5
F1
  8
0
  6
CONTINUOUS
 62
     2
  2
_OPEN
 10
170.370265129
 20
188.076685979
 30
0.0
 41
3.0
 42
3.0
 43
3.0
 50
259.6253892229
  0
ENDBLK
  5
F2
  8
0
  6
BYBLOCK
 62
     0
  0
BLOCK
  8
0
  2
*D10
 70
     1
 10
0.0
 20
0.0
 30
0.0
  3
*D10
  1

  0
TEXT
  5
F5
  8
0
  6
CONTINUOUS
 62
     2
 10
80.80589688523332
 20
179.2497133167
 30
0.0
 40
2.0
  1
26
 41
0.8
 72
     2
 11
83.4725635519
 21
179.2497133167
 31
0.0
  0
LINE
  5
F6
  8
0
  6
CONTINUOUS
 62
     2
 10
105.0204337066
 20
178.7497133167
 30
0.0
 11
84.4725635519
 21
178.7497133167
 31
0.0
  0
ENDBLK
  5
F7
  8
0
  6
BYBLOCK
 62
     0
  0
BLOCK
  8
0
  2
*D11
 70
     1
 10
0.0
 20
0.0
 30
0.0
  3
*D11
  1

  0
TEXT
  5
FA
  8
0
  6
CONTINUOUS
 62
     2
 10
80.80589688523332
 20
196.2497133167
 30
0.0
 40
2.0
  1
43
 41
0.8
 72
     2
 11
83.4725635519
 21
196.2497133167
 31
0.0
  0
LINE
  5
FB
  8
0
  6
CONTINUOUS
 62
     2
 10
102.8704337066
 20
195.7497133167
 30
0.0
 11
84.4725635519
 21
195.7497133167
 31
0.0
  0
ENDBLK
  5
FC
  8
0
  6
BYBLOCK
 62
     0
  0
BLOCK
  8
0
  2
*D12
 70
     1
 10
0.0
 20
0.0
 30
0.0
  3
*D12
  1

  0
TEXT
  5
FF
  8
0
  6
CONTINUOUS
 62
     2
 10
81.07256355189999
 20
203.2497133167
 30
0.0
 40
2.0
  1
50
 41
0.8
 72
     2
 11
83.4725635519
 21
203.2497133167
 31
0.0
  0
LINE
  5
100
  8
0
  6
CONTINUOUS
 62
     2
 10
95.8704337066
 20
202.7497133167
 30
0.0
 11
84.4725635519
 21
202.7497133167
 31
0.0
  0
ENDBLK
  5
101
  8
0
  6
BYBLOCK
 62
     0
  0
BLOCK
  8
0
  2
*D13
 70
     1
 10
0.0
 20
0.0
 30
0.0
  3
*D13
  1

  0
TEXT
  5
104
  8
0
  6
CONTINUOUS
 62
     2
 10
176.4585298639333
 20
157.2497133167
 30
0.0
 40
2.0
  1
4
 41
0.8
 72
     2
 11
177.5251965306
 21
157.2497133167
 31
0.0
  0
LINE
  5
105
  8
0
  6
CONTINUOUS
 62
     2
 10
189.8704337066
 20
156.7497133167
 30
0.0
 11
178.5251965306
 21
156.7497133167
 31
0.0
  0
ENDBLK
  5
106
  8
0
  6
BYBLOCK
 62
     0
  0
BLOCK
  8
0
  2
*D14
 70
     1
 10
0.0
 20
0.0
 30
0.0
  3
*D14
  1

  0
TEXT
  5
109
  8
0
  6
CONTINUOUS
 62
     2
 10
239.3202386405333
 20
157.2497133167
 30
0.0
 40
2.0
  1
4
 41
0.8
 72
     2
 11
240.3869053072
 21
157.2497133167
 31
0.0
  0
LINE
  5
10A
  8
0
  6
CONTINUOUS
 62
     2
 10
254.8704337066
 20
156.7497133167
 30
0.0
 11
241.3869053072
 21
156.7497133167
 31
0.0
  0
ENDBLK
  5
10B
  8
0
  6
BYBLOCK
 62
     0
  0
BLOCK
  8
0
  2
*D15
 70
     1
 10
0.0
 20
0.0
 30
0.0
  3
*D15
  1

  0
TEXT
  5
10E
  8
0
  6
CONTINUOUS
 62
     2
 10
307.4604115129333
 20
157.2497133167
 30
0.0
 40
2.0
  1
4
 41
0.8
 72
     2
 11
308.5270781796
 21
157.2497133167
 31
0.0
  0
LINE
  5
10F
  8
0
  6
CONTINUOUS
 62
     2
 10
319.8704337066
 20
156.7497133167
 30
0.0
 11
309.5270781796
 21
156.7497133167
 31
0.0
  0
ENDBLK
  5
110
  8
0
  6
BYBLOCK
 62
     0
  0
BLOCK
  8
0
  2
*D16
 70
     1
 10
0.0
 20
0.0
 30
0.0
  3
*D16
  1

  0
TEXT
  5
113
  8
0
  6
CONTINUOUS
 62
     2
 10
370.8019806618333
 20
157.2497133167
 30
0.0
 40
2.0
  1
4
 41
0.8
 72
     2
 11
371.8686473285
 21
157.2497133167
 31
0.0
  0
LINE
  5
114
  8
0
  6
CONTINUOUS
 62
     2
 10
384.8704337066
 20
156.7497133167
 30
0.0
 11
372.8686473285
 21
156.7497133167
 31
0.0
  0
ENDBLK
  5
115
  8
0
  6
BYBLOCK
 62
     0
  0
BLOCK
  8
0
  2
*D17
 70
     1
 10
0.0
 20
0.0
 30
0.0
  3
*D17
  1

  0
TEXT
  5
118
  8
0
  6
CONTINUOUS
 62
     2
 10
435.1032705554333
 20
157.2497133167
 30
0.0
 40
2.0
  1
4
 41
0.8
 72
     2
 11
436.1699372221
 21
157.2497133167
 31
0.0
  0
LINE
  5
119
  8
0
  6
CONTINUOUS
 62
     2
 10
449.8704337066
 20
156.7497133167
 30
0.0
 11
437.1699372221
 21
156.7497133167
 31
0.0
  0
ENDBLK
  5
11A
  8
0
  6
BYBLOCK
 62
     0
  0
BLOCK
  8
0
  2
*D18
 70
     1
 10
0.0
 20
0.0
 30
0.0
  3
*D18
  1

  0
TEXT
  5
11D
  8
0
  6
CONTINUOUS
 62
     2
 10
513.8003716192333
 20
157.2497133167
 30
0.0
 40
2.0
  1
4
 41
0.8
 72
     2
 11
514.8670382859
 21
157.2497133167
 31
0.0
  0
LINE
  5
11E
  8
0
  6
CONTINUOUS
 62
     2
 10
518.8704337066
 20
156.7497133167
 30
0.0
 11
515.8670382859
 21
156.7497133167
 31
0.0
  0
ENDBLK
  5
11F
  8
0
  6
BYBLOCK
 62
     0
  0
BLOCK
  8
0
  2
*D19
 70
     1
 10
0.0
 20
0.0
 30
0.0
  3
*D19
  1

  0
TEXT
  5
122
  8
0
  6
CONTINUOUS
 62
     2
 10
121.8704337066
 20
138.6702802886333
 30
0.0
 40
2.0
  1
25
 50
90.0
 41
0.8
 72
     2
 11
121.8704337066
 21
141.3369469553
 31
0.0
  0
LINE
  5
123
  8
0
  6
CONTINUOUS
 62
     2
 10
122.3704337066
 20
155.2497133167
 30
0.0
 11
122.3704337066
 21
142.3369469553
 31
0.0
  0
ENDBLK
  5
124
  8
0
  6
BYBLOCK
 62
     0
  0
BLOCK
  8
0
  2
*D20
 70
     1
 10
0.0
 20
0.0
 30
0.0
  3
*D20
  1

  0
TEXT
  5
127
  8
0
  6
CONTINUOUS
 62
     2
 10
96.8704337066
 20
140.5369469553
 30
0.0
 40
2.0
  1
0
 50
90.0
 41
0.8
 72
     2
 11
96.8704337066
 21
141.3369469553
 31
0.0
  0
LINE
  5
128
  8
0
  6
CONTINUOUS
 62
     2
 10
97.3704337066
 20
151.2497133167
 30
0.0
 11
97.3704337066
 21
142.3369469553
 31
0.0
  0
ENDBLK
  5
129
  8
0
  6
BYBLOCK
 62
     0
  0
BLOCK
  8
0
  2
*D21
 70
     1
 10
0.0
 20
0.0
 30
0.0
  3
*D21
  1

  0
TEXT
  5
12C
  8
0
  6
CONTINUOUS
 62
     2
 10
190.8704337066
 20
138.6702802886333
 30
0.0
 40
2.0
  1
94
 50
90.0
 41
0.8
 72
     2
 11
190.8704337066
 21
141.3369469553
 31
0.0
  0
LINE
  5
12D
  8
0
  6
CONTINUOUS
 62
     2
 10
191.3704337066
 20
155.2497133167
 30
0.0
 11
191.3704337066
 21
142.3369469553
 31
0.0
  0
ENDBLK
  5
12E
  8
0
  6
BYBLOCK
 62
     0
  0
BLOCK
  8
0
  2
*D22
 70
     1
 10
0.0
 20
0.0
 30
0.0
  3
*D22
  1

  0
TEXT
  5
131
  8
0
  6
CONTINUOUS
 62
     2
 10
255.8704337066
 20
137.6036136219667
 30
0.0
 40
2.0
  1
159
 50
90.0
 41
0.8
 72
     2
 11
255.8704337066
 21
141.3369469553
 31
0.0
  0
LINE
  5
132
  8
0
  6
CONTINUOUS
 62
     2
 10
256.3704337066
 20
155.2497133167
 30
0.0
 11
256.3704337066
 21
142.3369469553
 31
0.0
  0
ENDBLK
  5
133
  8
0
  6
BYBLOCK
 62
     0
  0
BLOCK
  8
0
  2
*D23
 70
     1
 10
0.0
 20
0.0
 30
0.0
  3
*D23
  1

  0
TEXT
  5
136
  8
0
  6
CONTINUOUS
 62
     2
 10
320.8704337066
 20
137.0702802886333
 30
0.0
 40
2.0
  1
224
 50
90.0
 41
0.8
 72
     2
 11
320.8704337066
 21
141.3369469553
 31
0.0
  0
LINE
  5
137
  8
0
  6
CONTINUOUS
 62
     2
 10
321.3704337066
 20
155.2497133167
 30
0.0
 11
321.3704337066
 21
142.3369469553
 31
0.0
  0
ENDBLK
  5
138
  8
0
  6
BYBLOCK
 62
     0
  0
BLOCK
  8
0
  2
*D24
 70
     1
 10
0.0
 20
0.0
 30
0.0
  3
*D24
  1

  0
TEXT
  5
13B
  8
0
  6
CONTINUOUS
 62
     2
 10
385.8704337066
 20
137.0702802886333
 30
0.0
 40
2.0
  1
289
 50
90.0
 41
0.8
 72
     2
 11
385.8704337066
 21
141.3369469553
 31
0.0
  0
LINE
  5
13C
  8
0
  6
CONTINUOUS
 62
     2
 10
386.3704337066
 20
155.2497133167
 30
0.0
 11
386.3704337066
 21
142.3369469553
 31
0.0
  0
ENDBLK
  5
13D
  8
0
  6
BYBLOCK
 62
     0
  0
BLOCK
  8
0
  2
*D25
 70
     1
 10
0.0
 20
0.0
 30
0.0
  3
*D25
  1

  0
TEXT
  5
140
  8
0
  6
CONTINUOUS
 62
     2
 10
450.8704337066
 20
137.0702802886333
 30
0.0
 40
2.0
  1
354
 50
90.0
 41
0.8
 72
     2
 11
450.8704337066
 21
141.3369469553
 31
0.0
  0
LINE
  5
141
  8
0
  6
CONTINUOUS
 62
     2
 10
451.3704337066
 20
155.2497133167
 30
0.0
 11
451.3704337066
 21
142.3369469553
 31
0.0
  0
ENDBLK
  5
142
  8
0
  6
BYBLOCK
 62
     0
  0
BLOCK
  8
0
  2
*D26
 70
     1
 10
0.0
 20
0.0
 30
0.0
  3
*D26
  1

  0
TEXT
  5
145
  8
0
  6
CONTINUOUS
 62
     2
 10
519.8704337066
 20
137.0702802886333
 30
0.0
 40
2.0
  1
423
 50
90.0
 41
0.8
 72
     2
 11
519.8704337066
 21
141.3369469553
 31
0.0
  0
LINE
  5
146
  8
0
  6
CONTINUOUS
 62
     2
 10
520.3704337066
 20
155.2497133167
 30
0.0
 11
520.3704337066
 21
142.3369469553
 31
0.0
  0
ENDBLK
  5
147
  8
0
  6
BYBLOCK
 62
     0
  0
BLOCK
  8
0
  2
*D27
 70
     1
 10
0.0
 20
0.0
 30
0.0
  3
*D27
  1

  0
TEXT
  5
14A
  8
0
  6
CONTINUOUS
 62
     2
 10
544.8704337066
 20
137.0702802886333
 30
0.0
 40
2.0
  1
448
 50
90.0
 41
0.8
 72
     2
 11
544.8704337066
 21
141.3369469553
 31
0.0
  0
LINE
  5
14B
  8
0
  6
CONTINUOUS
 62
     2
 10
545.3704337066
 20
151.2497133167
 30
0.0
 11
545.3704337066
 21
142.3369469553
 31
0.0
  0
ENDBLK
  5
14C
  8
0
  6
BYBLOCK
 62
     0
  0
BLOCK
  8
0
  2
*D28
 70
     1
 10
0.0
 20
0.0
 30
0.0
  3
*D28
  1

  0
TEXT
  5
14F
  8
0
  6
CONTINUOUS
 62
     2
 10
537.8704337066
 20
214.7555839234
 30
0.0
 40
2.0
  1
441
 50
90.0
 41
0.8
  0
LINE
  5
150
  8
0
  6
CONTINUOUS
 62
     2
 10
538.3704337066
 20
180.2497133167
 30
0.0
 11
538.3704337066
 21
213.7555839234
 31
0.0
  0
ENDBLK
  5
151
  8
0
  6
BYBLOCK
 62
     0
  0
BLOCK
  8
0
  2
*D29
 70
     1
 10
0.0
 20
0.0
 30
0.0
  3
*D29
  1

  0
TEXT
  5
154
  8
0
  6
CONTINUOUS
 62
     2
 10
103.8704337066
 20
214.7555839234
 30
0.0
 40
2.0
  1
7
 50
90.0
 41
0.8
  0
LINE
  5
155
  8
0
  6
CONTINUOUS
 62
     2
 10
104.3704337066
 20
180.2497133167
 30
0.0
 11
104.3704337066
 21
213.7555839234
 31
0.0
  0
ENDBLK
  5
156
  8
0
  6
BYBLOCK
 62
     0
  0
BLOCK
  8
0
  2
*D30
 70
     1
 10
0.0
 20
0.0
 30
0.0
  3
*D30
  1

  0
TEXT
  5
159
  8
0
  6
CONTINUOUS
 62
     2
 10
132.8366721918
 20
166.0479359081
 30
0.0
 40
2.0
  1
n
  7
TEXTSTYLE_1
  0
TEXT
  5
15A
  8
0
  6
CONTINUOUS
 62
     2
 10
135.5033388584
 20
166.0479359081
 30
0.0
 40
2.0
  1
4.3
 41
0.8
  0
LINE
  5
15B
  8
0
  6
CONTINUOUS
 62
     2
 10
123.3436267434
 20
158.6668453709
 30
0.0
 11
126.8366721918
 21
165.5479359081
 31
0.0
  0
LINE
  5
15C
  8
0
  6
CONTINUOUS
 62
     2
 10
126.8366721918
 20
165.5479359081
 30
0.0
 11
131.8366721918
 21
165.5479359081
 31
0.0
  0
LINE
  5
15D
  8
0
  6
CONTINUOUS
 62
     2
 10
131.8366721918
 20
165.5479359081
 30
0.0
 11
141.3033388584
 21
165.5479359081
 31
0.0
  0
INSERT
  5
15E
  8
0
  6
CONTINUOUS
 62
     2
  2
_OPEN
 10
123.3436267434
 20
158.6668453709
 30
0.0
 41
3.0
 42
3.0
 43
3.0
 50
243.0863006501
  0
ENDBLK
  5
15F
  8
0
  6
BYBLOCK
 62
     0
  0
BLOCK
  8
0
  2
*D31
 70
     1
 10
0.0
 20
0.0
 30
0.0
  3
*D31
  1

  0
TEXT
  5
162
  8
0
  6
CONTINUOUS
 62
     2
 10
115.0207483896
 20
187.0506571571
 30
0.0
 40
2.0
  1
n
  7
TEXTSTYLE_1
  0
TEXT
  5
163
  8
0
  6
CONTINUOUS
 62
     2
 10
117.6874150563
 20
187.0506571571
 30
0.0
 40
2.0
  1
4.3
 41
0.8
  0
LINE
  5
164
  8
0
  6
CONTINUOUS
 62
     2
 10
105.4713291579
 20
180.5964751328
 30
0.0
 11
109.0207483896
 21
186.5506571571
 31
0.0
  0
LINE
  5
165
  8
0
  6
CONTINUOUS
 62
     2
 10
109.0207483896
 20
186.5506571571
 30
0.0
 11
114.0207483896
 21
186.5506571571
 31
0.0
  0
LINE
  5
166
  8
0
  6
CONTINUOUS
 62
     2
 10
114.0207483896
 20
186.5506571571
 30
0.0
 11
123.4874150563
 21
186.5506571571
 31
0.0
  0
INSERT
  5
167
  8
0
  6
CONTINUOUS
 62
     2
  2
_OPEN
 10
105.4713291579
 20
180.5964751328
 30
0.0
 41
3.0
 42
3.0
 43
3.0
 50
239.1998978726
  0
ENDBLK
  5
168
  8
0
  6
BYBLOCK
 62
     0
  0
BLOCK
  8
0
  2
*D32
 70
     1
 10
0.0
 20
0.0
 30
0.0
  3
*D32
  1

  0
TEXT
  5
16B
  8
0
  6
CONTINUOUS
 62
     2
 10
91.5620252362
 20
265.2373899956334
 30
0.0
 40
2.0
  1
4
 50
90.0
 41
0.8
 72
     2
 11
91.5620252362
 21
266.3040566623
 31
0.0
  0
LINE
  5
16C
  8
0
  6
CONTINUOUS
 62
     2
 10
95.8704337066
 20
274.9454402793
 30
0.0
 11
89.0620252362
 21
274.9454402793
 31
0.0
  0
LINE
  5
16D
  8
0
  6
CONTINUOUS
 62
     2
 10
95.8704337066
 20
278.9454402793
 30
0.0
 11
89.0620252362
 21
278.9454402793
 31
0.0
  0
LINE
  5
16E
  8
0
  6
CONTINUOUS
 62
     2
 10
92.0620252362
 20
274.9454402793
 30
0.0
 11
92.0620252362
 21
264.7040566623
 31
0.0
  0
LINE
  5
16F
  8
0
  6
CONTINUOUS
 62
     2
 10
92.0620252362
 20
264.7040566623
 30
0.0
 11
92.0620252362
 21
276.9454402793
 31
0.0
  0
LINE
  5
170
  8
0
  6
CONTINUOUS
 62
     2
 10
92.0620252362
 20
278.9454402793
 30
0.0
 11
92.0620252362
 21
282.9454402793
 31
0.0
  0
LINE
  5
171
  8
0
  6
CONTINUOUS
 62
     2
 10
92.0620252362
 20
282.9454402793
 30
0.0
 11
92.0620252362
 21
276.9454402793
 31
0.0
  0
INSERT
  5
172
  8
0
  6
CONTINUOUS
 62
     2
  2
_OPEN
 10
92.0620252362
 20
274.9454402793
 30
0.0
 41
3.0
 42
3.0
 43
3.0
 50
90.0
  0
INSERT
  5
173
  8
0
  6
CONTINUOUS
 62
     2
  2
_OPEN
 10
92.0620252362
 20
278.9454402793
 30
0.0
 41
3.0
 42
3.0
 43
3.0
 50
270.0
  0
ENDBLK
  5
174
  8
0
  6
BYBLOCK
 62
     0
  0
ENDSEC
  0
SECTION
  2
ENTITIES
  0
TEXT
  5
175
  8
0
  6
CONTINUOUS
 62
     2
 10
586.478543473
 20
398.7256129451
 30
0.0
 40
1.5
  1
M00011 00
 50
90.0
 41
0.6
  7
TEXTSTYLE_2
 72
     2
 11
586.478543473
 21
405.1756129451
 31
0.0
  0
INSERT
  5
176
  8
0
  6
CONTINUOUS
 62
     2
  2
MARGEA2_BL0
 10
296.99996
 20
210.000076
 30
0.0
  0
INSERT
  5
177
  8
0
  6
CONTINUOUS
 62
     2
  2
REPERE_ORIENTATION_BL1
 10
297.0047509462
 20
11.8841899578
 30
0.0
  0
DIMENSION
  5
195
  8
0
  6
CONTINUOUS
 62
     2
  2
*D32
 10
92.0620252362
 20
278.9454402793
 30
0.0
 11
92.0620252362
 21
265.5540554586
 31
0.0
 70
   160
  3
STANDARD
 13
97.3704337066
 23
274.9454402793
 33
0.0
 14
97.3704337066
 24
278.9454402793
 34
0.0
 50
90.0
  0
LINE
  5
196
  8
0
  6
CONTINUOUS
 62
     2
 10
403.9875839213
 20
67.2799593495
 30
0.0
 11
583.9675839213
 21
67.2799593495
 31
0.0
  0
LINE
  5
197
  8
0
  6
CONTINUOUS
 62
     2
 10
403.9875839213
 20
67.2799593495
 30
0.0
 11
403.9875839213
 21
15.2799593495
 31
0.0
  0
LINE
  5
198
  8
0
  6
CONTINUOUS
 62
     2
 10
403.9875839213
 20
57.2799593495
 30
0.0
 11
583.9675839213
 21
57.2799593495
 31
0.0
  0
LINE
  5
199
  8
0
  6
CONTINUOUS
 62
     2
 10
473.9875839213
 20
45.2799593495
 30
0.0
 11
583.9675839213
 21
45.2799593495
 31
0.0
  0
LINE
  5
19A
  8
0
  6
CONTINUOUS
 62
     2
 10
403.9875839213
 20
25.2799593495
 30
0.0
 11
583.9675839213
 21
25.2799593495
 31
0.0
  0
LINE
  5
19B
  8
0
  6
CONTINUOUS
 62
     2
 10
403.9875839213
 20
15.2799593495
 30
0.0
 11
583.9675839213
 21
15.2799593495
 31
0.0
  0
LINE
  5
19C
  8
0
  6
CONTINUOUS
 62
     2
 10
438.9875839213
 20
67.2799593495
 30
0.0
 11
438.9875839213
 21
57.2799593495
 31
0.0
  0
LINE
  5
19D
  8
0
  6
CONTINUOUS
 62
     2
 10
473.9875839213
 20
67.2799593495
 30
0.0
 11
473.9875839213
 21
25.2799593495
 31
0.0
  0
LINE
  5
19E
  8
0
  6
CONTINUOUS
 62
     2
 10
497.9875839213
 20
67.2799593495
 30
0.0
 11
497.9875839213
 21
45.2799593495
 31
0.0
  0
LINE
  5
19F
  8
0
  6
CONTINUOUS
 62
     2
 10
522.9875839213
 20
67.2799593495
 30
0.0
 11
522.9875839213
 21
45.2799593495
 31
0.0
  0
LINE
  5
1A0
  8
0
  6
CONTINUOUS
 62
     2
 10
542.6675839213
 20
67.2799593495
 30
0.0
 11
542.6675839213
 21
45.2799593495
 31
0.0
  0
LINE
  5
1A1
  8
0
  6
CONTINUOUS
 62
     2
 10
583.9675839213
 20
67.2799593495
 30
0.0
 11
583.9675839213
 21
15.2799593495
 31
0.0
  0
TEXT
  5
1A2
  8
0
  6
CONTINUOUS
 62
     2
 10
413.8629559451095
 20
62.9049593495
 30
0.0
 40
2.5
  1
Designer
  7
TEXTSTYLE_4
 72
     1
 11
421.4875839213
 21
62.9049593495
 31
0.0
  0
TEXT
  5
1A3
  8
0
  6
CONTINUOUS
 62
     2
 10
420.3566315403476
 20
59.1549593495
 30
0.0
 40
2.5
  1
 
  7
TEXTSTYLE_4
 72
     1
 11
421.4875839213
 21
59.1549593495
 31
0.0
  0
TEXT
  5
1A4
  8
0
  6
CONTINUOUS
 62
     2
 10
443.7476285641571
 20
62.9049593495
 30
0.0
 40
2.5
  1
Creation date
  7
TEXTSTYLE_5
 72
     1
 11
456.4875839213
 21
62.9049593495
 31
0.0
  0
TEXT
  5
1A5
  8
0
  6
CONTINUOUS
 62
     2
 10
445.7732982070142
 20
59.1549593495
 30
0.0
 40
2.5
  1
Jan-29-20
  7
TEXTSTYLE_5
 72
     1
 11
456.4875839213
 21
59.1549593495
 31
0.0
  0
TEXT
  5
1A6
  8
0
  6
CONTINUOUS
 62
     2
 10
481.402390468919
 20
62.9049593495
 30
0.0
 40
2.5
  1
Scale
  7
TEXTSTYLE_5
 72
     1
 11
485.9875839213
 21
62.9049593495
 31
0.0
  0
TEXT
  5
1A7
  8
0
  6
CONTINUOUS
 62
     2
 10
481.2256791593952
 20
59.1549593495
 30
0.0
 40
2.5
  1
1.000
  7
TEXTSTYLE_5
 72
     1
 11
485.9875839213
 21
59.1549593495
 31
0.0
  0
TEXT
  5
1A8
  8
0
  6
CONTINUOUS
 62
     2
 10
504.1129559451095
 20
62.9049593495
 30
0.0
 40
2.5
  1
Format
  7
TEXTSTYLE_4
 72
     1
 11
510.4875839213
 21
62.9049593495
 31
0.0
  0
TEXT
  5
1A9
  8
0
  6
CONTINUOUS
 62
     2
 10
508.3447267784428
 20
59.1549593495
 30
0.0
 40
2.5
  1
A2
  7
TEXTSTYLE_4
 72
     1
 11
510.4875839213
 21
59.1549593495
 31
0.0
  0
TEXT
  5
1AA
  8
0
  6
CONTINUOUS
 62
     2
 10
528.3670184451095
 20
62.9049593495
 30
0.0
 40
2.5
  1
Index
  7
TEXTSTYLE_5
 72
     1
 11
532.8275839213
 21
62.9049593495
 31
0.0
  0
TEXT
  5
1AB
  8
0
  6
CONTINUOUS
 62
     2
 10
531.6966315403475
 20
59.1549593495
 30
0.0
 40
2.5
  1
 
  7
TEXTSTYLE_5
 72
     1
 11
532.8275839213
 21
59.1549593495
 31
0.0
  0
TEXT
  5
1AC
  8
0
  6
CONTINUOUS
 62
     2
 10
546.8153517784428
 20
63.0299593495
 30
0.0
 40
3.0
  1
Gen. Tolerance
  7
TEXTSTYLE_5
 72
     1
 11
563.3175839213
 21
63.0299593495
 31
0.0
  0
TEXT
  5
1AD
  8
0
  6
CONTINUOUS
 62
     2
 10
548.0966017784428
 20
58.5299593495
 30
0.0
 40
3.0
  1
ISO 2768-1m
  7
TEXTSTYLE_5
 72
     1
 11
563.3175839213
 21
58.5299593495
 31
0.0
  0
TEXT
  5
1AE
  8
0
  6
CONTINUOUS
 62
     2
 10
480.3392086188667
 20
51.9049593495
 30
0.0
 40
2.5
  1
N
  7
TEXTSTYLE_4
 72
     1
 11
481.1725419522
 21
51.9049593495
 31
0.0
  0
TEXT
  5
1AF
  8
0
  6
CONTINUOUS
 62
     2
 10
482.9395557848
 20
51.9049593495
 30
0.0
 40
2.5
  1
°
  7
TEXTSTYLE_7
 72
     1
 11
483.1739307848
 21
51.9049593495
 31
0.0
  0
TEXT
  5
1B0
  8
0
  6
CONTINUOUS
 62
     2
 10
481.9770679919952
 20
51.9049593495
 30
0.0
 40
2.5
  1
 Outil
  7
TEXTSTYLE_4
 72
     1
 11
487.9889727539
 21
51.9049593495
 31
0.0
  0
TEXT
  5
1B1
  8
0
  6
CONTINUOUS
 62
     2
 10
484.8566315403476
 20
48.1549593495
 30
0.0
 40
2.5
  1
 
  7
TEXTSTYLE_4
 72
     1
 11
485.9875839213
 21
48.1549593495
 31
0.0
  0
TEXT
  5
1B2
  8
0
  6
CONTINUOUS
 62
     2
 10
505.2543377701667
 20
51.9049593495
 30
0.0
 40
2.5
  1
N
  7
TEXTSTYLE_5
 72
     1
 11
506.0876711035
 21
51.9049593495
 31
0.0
  0
TEXT
  5
1B3
  8
0
  6
CONTINUOUS
 62
     2
 10
507.8546849361
 20
51.9049593495
 30
0.0
 40
2.5
  1
°
  7
TEXTSTYLE_8
 72
     1
 11
508.0890599361
 21
51.9049593495
 31
0.0
  0
TEXT
  5
1B4
  8
0
  6
CONTINUOUS
 62
     2
 10
506.7188834681858
 20
51.9049593495
 30
0.0
 40
2.5
  1
 Plan
  7
TEXTSTYLE_5
 72
     1
 11
512.4889727539
 21
51.9049593495
 31
0.0
  0
TEXT
  5
1B5
  8
0
  6
CONTINUOUS
 62
     2
 10
509.6761121347333
 20
48.1549593495
 30
0.0
 40
2.5
  1
1
  7
TEXTSTYLE_5
 72
     1
 11
509.9755913014
 21
48.1549593495
 31
0.0
  0
TEXT
  5
1B6
  8
0
  6
CONTINUOUS
 62
     2
 10
510.3483289573476
 20
48.1549593495
 30
0.0
 40
2.5
  1
 
  7
TEXTSTYLE_5
 72
     1
 11
511.4792813383
 21
48.1549593495
 31
0.0
  0
TEXT
  5
1B7
  8
0
  6
CONTINUOUS
 62
     2
 10
525.9823458260619
 20
51.9049593495
 30
0.0
 40
2.5
  1
Material
  7
TEXTSTYLE_5
 72
     1
 11
532.8275839213
 21
51.9049593495
 31
0.0
  0
TEXT
  5
1B8
  8
0
  6
CONTINUOUS
 62
     2
 10
531.7598755879666
 20
48.1549593495
 30
0.0
 40
2.5
  1
/
  7
TEXTSTYLE_5
 72
     1
 11
532.8275839213
 21
48.1549593495
 31
0.0
  0
TEXT
  5
1B9
  8
0
  6
CONTINUOUS
 62
     2
 10
543.3752476117761
 20
53.7799593495
 30
0.0
 40
2.5
  1
Treatment / Coating
  7
TEXTSTYLE_5
 72
     1
 11
563.3175839213
 21
53.7799593495
 31
0.0
  0
TEXT
  5
1BA
  8
0
  6
CONTINUOUS
 62
     2
 10
560.6390124927285
 20
50.0299593495
 30
0.0
 40
2.5
  1
- 
  7
TEXTSTYLE_5
 72
     1
 11
563.3175839213
 21
50.0299593495
 31
0.0
  0
TEXT
  5
1BB
  8
0
  6
CONTINUOUS
 62
     2
 10
559.5080601117761
 20
46.2799593495
 30
0.0
 40
2.5
  1
-  
  7
TEXTSTYLE_5
 72
     1
 11
563.3175839213
 21
46.2799593495
 31
0.0
  0
TEXT
  5
1BC
  8
0
  6
CONTINUOUS
 62
     2
 10
475.2675839213
 20
40.4799593495
 30
0.0
 40
3.2
  1
Model name:
  7
TEXTSTYLE_5
  0
TEXT
  5
1BD
  8
0
  6
CONTINUOUS
 62
     2
 10
502.5527327308238
 20
27.7799593495
 30
0.0
 40
5.0
  1
T100-0004-A
  7
TEXTSTYLE_9
 72
     1
 11
528.9775839213
 21
27.7799593495
 31
0.0
  0
LINE
  5
1BE
  8
0
  6
CONTINUOUS
 62
     7
 10
0.0
 20
0.0
 30
0.0
 11
0.0
 21
420.0
 31
0.0
  0
LINE
  5
1BF
  8
0
  6
CONTINUOUS
 62
     7
 10
0.0
 20
0.0
 30
0.0
 11
594.0
 21
0.0
 31
0.0
  0
LINE
  5
1C0
  8
0
  6
CONTINUOUS
 62
     7
 10
0.0
 20
420.0
 30
0.0
 11
594.0
 21
420.0
 31
0.0
  0
LINE
  5
1C1
  8
0
  6
CONTINUOUS
 62
     7
 10
594.0
 20
0.0
 30
0.0
 11
594.0
 21
420.0
 31
0.0
  0
LINE
  5
1C2
  8
0
  6
CONTINUOUS
 62
     7
 10
97.3704337066
 20
202.7497133167
 30
0.0
 11
97.3704337066
 21
152.7497133167
 31
0.0
  0
LINE
  5
1C3
  8
0
  6
CONTINUOUS
 62
     7
 10
141.3889056886
 20
200.8758690575
 30
0.0
 11
165.5195655323
 21
189.623557576
 31
0.0
  0
LINE
  5
1C4
  8
0
  6
CONTINUOUS
 62
     7
 10
97.3704337066
 20
152.7497133167
 30
0.0
 11
545.3704337066
 21
152.7497133167
 31
0.0
  0
LINE
  5
1C5
  8
0
  6
CONTINUOUS
 62
     7
 10
173.9719307671
 20
187.7497133167
 30
0.0
 11
468.7689366461
 21
187.7497133167
 31
0.0
  0
LINE
  5
1C6
  8
0
  6
CONTINUOUS
 62
     7
 10
545.3704337066
 20
202.7497133167
 30
0.0
 11
509.8043269595
 21
202.7497133167
 31
0.0
  0
LINE
  5
1C7
  8
0
  6
CONTINUOUS
 62
     7
 10
132.9365404538
 20
202.7497133167
 30
0.0
 11
97.3704337066
 21
202.7497133167
 31
0.0
  0
LINE
  5
1C8
  8
0
  6
CONTINUOUS
 62
     7
 10
477.2213018809
 20
189.623557576
 30
0.0
 11
501.3519617247
 21
200.8758690575
 31
0.0
  0
LINE
  5
1C9
  8
0
  6
CONTINUOUS
 62
     7
 10
545.3704337066
 20
152.7497133167
 30
0.0
 11
545.3704337066
 21
202.7497133167
 31
0.0
  0
LINE
  5
1CA
  8
0
  6
CONTINUOUS
 62
     7
 10
97.3704337066
 20
274.9454402793
 30
0.0
 11
97.3704337066
 21
278.9454402793
 31
0.0
  0
LINE
  5
1CB
  8
DEFAULT_2
  6
HIDDEN
 62
     8
 10
102.2204337066
 20
274.9454402793
 30
0.0
 11
102.2204337066
 21
276.6154402793
 31
0.0
  0
LINE
  5
1CC
  8
DEFAULT_2
  6
HIDDEN
 62
     8
 10
106.5204337066
 20
274.9454402793
 30
0.0
 11
106.5204337066
 21
276.6154402793
 31
0.0
  0
LINE
  5
1CD
  8
DEFAULT_2
  6
HIDDEN
 62
     8
 10
120.2204337066
 20
274.9454402793
 30
0.0
 11
120.2204337066
 21
276.6154402793
 31
0.0
  0
LINE
  5
1CE
  8
DEFAULT_2
  6
HIDDEN
 62
     8
 10
124.5204337066
 20
274.9454402793
 30
0.0
 11
124.5204337066
 21
276.6154402793
 31
0.0
  0
LINE
  5
1CF
  8
DEFAULT_2
  6
HIDDEN
 62
     8
 10
132.9365404538
 20
278.9454402793
 30
0.0
 11
132.9365404538
 21
274.9454402793
 31
0.0
  0
LINE
  5
1D0
  8
DEFAULT_2
  6
HIDDEN
 62
     8
 10
141.3889056886
 20
278.9454402793
 30
0.0
 11
141.3889056886
 21
274.9454402793
 31
0.0
  0
LINE
  5
1D1
  8
DEFAULT_2
  6
HIDDEN
 62
     8
 10
165.5195655323
 20
278.9454402793
 30
0.0
 11
165.5195655323
 21
274.9454402793
 31
0.0
  0
LINE
  5
1D2
  8
DEFAULT_2
  6
HIDDEN
 62
     8
 10
173.9719307671
 20
278.9454402793
 30
0.0
 11
173.9719307671
 21
274.9454402793
 31
0.0
  0
LINE
  5
1D3
  8
DEFAULT_2
  6
HIDDEN
 62
     8
 10
106.5204337066
 20
276.6154402793
 30
0.0
 11
108.8504337066
 21
278.9454402793
 31
0.0
  0
LINE
  5
1D4
  8
DEFAULT_2
  6
HIDDEN
 62
     8
 10
102.2204337066
 20
276.6154402793
 30
0.0
 11
99.8904337066
 21
278.9454402793
 31
0.0
  0
LINE
  5
1D5
  8
DEFAULT_2
  6
HIDDEN
 62
     8
 10
124.5204337066
 20
276.6154402793
 30
0.0
 11
126.8504337066
 21
278.9454402793
 31
0.0
  0
LINE
  5
1D6
  8
DEFAULT_2
  6
HIDDEN
 62
     8
 10
120.2204337066
 20
276.6154402793
 30
0.0
 11
117.8904337066
 21
278.9454402793
 31
0.0
  0
LINE
  5
1D7
  8
DEFAULT_2
  6
HIDDEN
 62
     8
 10
189.2204337066
 20
274.9454402793
 30
0.0
 11
189.2204337066
 21
276.6154402793
 31
0.0
  0
LINE
  5
1D8
  8
DEFAULT_2
  6
HIDDEN
 62
     8
 10
193.5204337066
 20
274.9454402793
 30
0.0
 11
193.5204337066
 21
276.6154402793
 31
0.0
  0
LINE
  5
1D9
  8
DEFAULT_2
  6
HIDDEN
 62
     8
 10
193.5204337066
 20
276.6154402793
 30
0.0
 11
195.8504337066
 21
278.9454402793
 31
0.0
  0
LINE
  5
1DA
  8
DEFAULT_2
  6
HIDDEN
 62
     8
 10
189.2204337066
 20
276.6154402793
 30
0.0
 11
186.8904337066
 21
278.9454402793
 31
0.0
  0
LINE
  5
1DB
  8
DEFAULT_2
  6
HIDDEN
 62
     8
 10
254.2204337066
 20
274.9454402793
 30
0.0
 11
254.2204337066
 21
276.6154402793
 31
0.0
  0
LINE
  5
1DC
  8
DEFAULT_2
  6
HIDDEN
 62
     8
 10
258.5204337066
 20
274.9454402793
 30
0.0
 11
258.5204337066
 21
276.6154402793
 31
0.0
  0
POLYLINE
  5
1DD
  8
0
  6
CONTINUOUS
 62
     7
 66
     1
 10
0.0
 20
0.0
 30
0.0
  0
VERTEX
  5
293
  8
0
  6
CONTINUOUS
 62
     7
 10
120.3529104726
 20
278.9454402793
 30
0.0
  0
VERTEX
  5
294
  8
0
  6
CONTINUOUS
 62
     7
 10
121.3810380002
 20
278.5859868285
 30
0.0
  0
VERTEX
  5
295
  8
0
  6
CONTINUOUS
 62
     7
 10
122.3706668721
 20
278.4654402861
 30
0.0
  0
VERTEX
  5
296
  8
0
  6
CONTINUOUS
 62
     7
 10
123.3600550621
 20
278.5860410155
 30
0.0
  0
VERTEX
  5
297
  8
0
  6
CONTINUOUS
 62
     7
 10
124.3879569407
 20
278.9454402793
 30
0.0
  0
SEQEND
  5
2B6
  8
0
  6
CONTINUOUS
 62
     7
  0
LINE
  5
1E4
  8
DEFAULT_2
  6
HIDDEN
 62
     8
 10
258.5204337066
 20
276.6154402793
 30
0.0
 11
260.8504337066
 21
278.9454402793
 31
0.0
  0
LINE
  5
1E5
  8
DEFAULT_2
  6
HIDDEN
 62
     8
 10
254.2204337066
 20
276.6154402793
 30
0.0
 11
251.8904337066
 21
278.9454402793
 31
0.0
  0
POLYLINE
  5
1E6
  8
0
  6
CONTINUOUS
 62
     7
 66
     1
 10
0.0
 20
0.0
 30
0.0
  0
VERTEX
  5
298
  8
0
  6
CONTINUOUS
 62
     7
 10
189.3529104726
 20
278.9454402793
 30
0.0
  0
VERTEX
  5
299
  8
0
  6
CONTINUOUS
 62
     7
 10
190.3810380002
 20
278.5859868285
 30
0.0
  0
VERTEX
  5
29A
  8
0
  6
CONTINUOUS
 62
     7
 10
191.3706668721
 20
278.4654402861
 30
0.0
  0
VERTEX
  5
29B
  8
0
  6
CONTINUOUS
 62
     7
 10
192.3600550621
 20
278.5860410155
 30
0.0
  0
VERTEX
  5
29C
  8
0
  6
CONTINUOUS
 62
     7
 10
193.3879569407
 20
278.9454402793
 30
0.0
  0
SEQEND
  5
2B7
  8
0
  6
CONTINUOUS
 62
     7
  0
POLYLINE
  5
1ED
  8
0
  6
CONTINUOUS
 62
     7
 66
     1
 10
0.0
 20
0.0
 30
0.0
  0
VERTEX
  5
29D
  8
0
  6
CONTINUOUS
 62
     7
 10
254.3529104726
 20
278.9454402793
 30
0.0
  0
VERTEX
  5
29E
  8
0
  6
CONTINUOUS
 62
     7
 10
255.3810380002
 20
278.5859868285
 30
0.0
  0
VERTEX
  5
29F
  8
0
  6
CONTINUOUS
 62
     7
 10
256.3706668721
 20
278.4654402861
 30
0.0
  0
VERTEX
  5
2A0
  8
0
  6
CONTINUOUS
 62
     7
 10
257.3600550621
 20
278.5860410155
 30
0.0
  0
VERTEX
  5
2A1
  8
0
  6
CONTINUOUS
 62
     7
 10
258.3879569407
 20
278.9454402793
 30
0.0
  0
SEQEND
  5
2B8
  8
0
  6
CONTINUOUS
 62
     7
  0
LINE
  5
1F4
  8
DEFAULT_2
  6
HIDDEN
 62
     8
 10
319.2204337066
 20
274.9454402793
 30
0.0
 11
319.2204337066
 21
276.6154402793
 31
0.0
  0
LINE
  5
1F5
  8
DEFAULT_2
  6
HIDDEN
 62
     8
 10
323.5204337066
 20
276.6154402793
 30
0.0
 11
325.8504337066
 21
278.9454402793
 31
0.0
  0
LINE
  5
1F6
  8
0
  6
CONTINUOUS
 62
     7
 10
97.3704337066
 20
274.9454402793
 30
0.0
 11
545.3704337066
 21
274.9454402793
 31
0.0
  0
LINE
  5
1F7
  8
DEFAULT_2
  6
HIDDEN
 62
     8
 10
102.2204337066
 20
276.6154402793
 30
0.0
 11
106.5204337066
 21
276.6154402793
 31
0.0
  0
LINE
  5
1F8
  8
DEFAULT_2
  6
HIDDEN
 62
     8
 10
120.2204337066
 20
276.6154402793
 30
0.0
 11
124.5204337066
 21
276.6154402793
 31
0.0
  0
LINE
  5
1F9
  8
DEFAULT_2
  6
HIDDEN
 62
     8
 10
189.2204337066
 20
276.6154402793
 30
0.0
 11
193.5204337066
 21
276.6154402793
 31
0.0
  0
LINE
  5
1FA
  8
DEFAULT_2
  6
HIDDEN
 62
     8
 10
254.2204337066
 20
276.6154402793
 30
0.0
 11
258.5204337066
 21
276.6154402793
 31
0.0
  0
LINE
  5
1FB
  8
DEFAULT_2
  6
HIDDEN
 62
     8
 10
319.2204337066
 20
276.6154402793
 30
0.0
 11
323.5204337066
 21
276.6154402793
 31
0.0
  0
LINE
  5
1FC
  8
DEFAULT_2
  6
HIDDEN
 62
     8
 10
384.2204337066
 20
276.6154402793
 30
0.0
 11
388.5204337066
 21
276.6154402793
 31
0.0
  0
LINE
  5
1FD
  8
DEFAULT_2
  6
HIDDEN
 62
     8
 10
449.2204337066
 20
276.6154402793
 30
0.0
 11
453.5204337066
 21
276.6154402793
 31
0.0
  0
LINE
  5
1FE
  8
DEFAULT_2
  6
HIDDEN
 62
     8
 10
518.2204337066
 20
276.6154402793
 30
0.0
 11
522.5204337066
 21
276.6154402793
 31
0.0
  0
LINE
  5
1FF
  8
DEFAULT_2
  6
HIDDEN
 62
     8
 10
536.2204337066
 20
276.6154402793
 30
0.0
 11
540.5204337066
 21
276.6154402793
 31
0.0
  0
LINE
  5
200
  8
0
  6
CONTINUOUS
 62
     7
 10
97.3704337066
 20
278.9454402793
 30
0.0
 11
545.3704337066
 21
278.9454402793
 31
0.0
  0
POLYLINE
  5
201
  8
0
  6
CONTINUOUS
 62
     7
 66
     1
 10
0.0
 20
0.0
 30
0.0
  0
VERTEX
  5
2A2
  8
0
  6
CONTINUOUS
 62
     7
 10
319.3529104726
 20
278.9454402793
 30
0.0
  0
VERTEX
  5
2A3
  8
0
  6
CONTINUOUS
 62
     7
 10
320.3810389061
 20
278.5859866109
 30
0.0
  0
VERTEX
  5
2A4
  8
0
  6
CONTINUOUS
 62
     7
 10
321.3706669735
 20
278.4654402861
 30
0.0
  0
VERTEX
  5
2A5
  8
0
  6
CONTINUOUS
 62
     7
 10
322.3600543062
 20
278.586040834
 30
0.0
  0
VERTEX
  5
2A6
  8
0
  6
CONTINUOUS
 62
     7
 10
323.3879569407
 20
278.9454402793
 30
0.0
  0
SEQEND
  5
2B9
  8
0
  6
CONTINUOUS
 62
     7
  0
LINE
  5
208
  8
DEFAULT_2
  6
HIDDEN
 62
     8
 10
319.2204337066
 20
276.6154402793
 30
0.0
 11
316.8904337066
 21
278.9454402793
 31
0.0
  0
LINE
  5
209
  8
DEFAULT_2
  6
HIDDEN
 62
     8
 10
323.5204337066
 20
274.9454402793
 30
0.0
 11
323.5204337066
 21
276.6154402793
 31
0.0
  0
POLYLINE
  5
20A
  8
0
  6
CONTINUOUS
 62
     7
 66
     1
 10
0.0
 20
0.0
 30
0.0
  0
VERTEX
  5
2A7
  8
0
  6
CONTINUOUS
 62
     7
 10
384.3529104726
 20
278.9454402793
 30
0.0
  0
VERTEX
  5
2A8
  8
0
  6
CONTINUOUS
 62
     7
 10
385.3810380002
 20
278.5859868285
 30
0.0
  0
VERTEX
  5
2A9
  8
0
  6
CONTINUOUS
 62
     7
 10
386.3706668721
 20
278.4654402861
 30
0.0
  0
VERTEX
  5
2AA
  8
0
  6
CONTINUOUS
 62
     7
 10
387.3600550621
 20
278.5860410155
 30
0.0
  0
VERTEX
  5
2AB
  8
0
  6
CONTINUOUS
 62
     7
 10
388.3879569407
 20
278.9454402793
 30
0.0
  0
SEQEND
  5
2BA
  8
0
  6
CONTINUOUS
 62
     7
  0
POLYLINE
  5
211
  8
0
  6
CONTINUOUS
 62
     7
 66
     1
 10
0.0
 20
0.0
 30
0.0
  0
VERTEX
  5
2AC
  8
0
  6
CONTINUOUS
 62
     7
 10
449.3529104726
 20
278.9454402793
 30
0.0
  0
VERTEX
  5
2AD
  8
0
  6
CONTINUOUS
 62
     7
 10
450.3810380002
 20
278.5859868285
 30
0.0
  0
VERTEX
  5
2AE
  8
0
  6
CONTINUOUS
 62
     7
 10
451.3706668721
 20
278.4654402861
 30
0.0
  0
VERTEX
  5
2AF
  8
0
  6
CONTINUOUS
 62
     7
 10
452.3600550621
 20
278.5860410155
 30
0.0
  0
VERTEX
  5
2B0
  8
0
  6
CONTINUOUS
 62
     7
 10
453.3879569407
 20
278.9454402793
 30
0.0
  0
SEQEND
  5
2BB
  8
0
  6
CONTINUOUS
 62
     7
  0
LINE
  5
218
  8
DEFAULT_2
  6
HIDDEN
 62
     8
 10
384.2204337066
 20
276.6154402793
 30
0.0
 11
381.8904337066
 21
278.9454402793
 31
0.0
  0
LINE
  5
219
  8
DEFAULT_2
  6
HIDDEN
 62
     8
 10
388.5204337066
 20
276.6154402793
 30
0.0
 11
390.8504337066
 21
278.9454402793
 31
0.0
  0
LINE
  5
21A
  8
DEFAULT_2
  6
HIDDEN
 62
     8
 10
384.2204337066
 20
274.9454402793
 30
0.0
 11
384.2204337066
 21
276.6154402793
 31
0.0
  0
LINE
  5
21B
  8
DEFAULT_2
  6
HIDDEN
 62
     8
 10
388.5204337066
 20
274.9454402793
 30
0.0
 11
388.5204337066
 21
276.6154402793
 31
0.0
  0
POLYLINE
  5
21C
  8
0
  6
CONTINUOUS
 62
     7
 66
     1
 10
0.0
 20
0.0
 30
0.0
  0
VERTEX
  5
2B1
  8
0
  6
CONTINUOUS
 62
     7
 10
518.3529104726
 20
278.9454402793
 30
0.0
  0
VERTEX
  5
2B2
  8
0
  6
CONTINUOUS
 62
     7
 10
519.3810380002
 20
278.5859868285
 30
0.0
  0
VERTEX
  5
2B3
  8
0
  6
CONTINUOUS
 62
     7
 10
520.3706668721
 20
278.4654402861
 30
0.0
  0
VERTEX
  5
2B4
  8
0
  6
CONTINUOUS
 62
     7
 10
521.3600550621
 20
278.5860410155
 30
0.0
  0
VERTEX
  5
2B5
  8
0
  6
CONTINUOUS
 62
     7
 10
522.3879569407
 20
278.9454402793
 30
0.0
  0
SEQEND
  5
2BC
  8
0
  6
CONTINUOUS
 62
     7
  0
LINE
  5
223
  8
DEFAULT_2
  6
HIDDEN
 62
     8
 10
449.2204337066
 20
276.6154402793
 30
0.0
 11
446.8904337066
 21
278.9454402793
 31
0.0
  0
LINE
  5
224
  8
DEFAULT_2
  6
HIDDEN
 62
     8
 10
453.5204337066
 20
276.6154402793
 30
0.0
 11
455.8504337066
 21
278.9454402793
 31
0.0
  0
LINE
  5
225
  8
DEFAULT_2
  6
HIDDEN
 62
     8
 10
449.2204337066
 20
274.9454402793
 30
0.0
 11
449.2204337066
 21
276.6154402793
 31
0.0
  0
LINE
  5
226
  8
DEFAULT_2
  6
HIDDEN
 62
     8
 10
453.5204337066
 20
274.9454402793
 30
0.0
 11
453.5204337066
 21
276.6154402793
 31
0.0
  0
LINE
  5
227
  8
DEFAULT_2
  6
HIDDEN
 62
     8
 10
468.7689366461
 20
278.9454402793
 30
0.0
 11
468.7689366461
 21
274.9454402793
 31
0.0
  0
LINE
  5
228
  8
DEFAULT_2
  6
HIDDEN
 62
     8
 10
522.5204337066
 20
276.6154402793
 30
0.0
 11
524.8504337066
 21
278.9454402793
 31
0.0
  0
LINE
  5
229
  8
DEFAULT_2
  6
HIDDEN
 62
     8
 10
518.2204337066
 20
276.6154402793
 30
0.0
 11
515.8904337066
 21
278.9454402793
 31
0.0
  0
LINE
  5
22A
  8
DEFAULT_2
  6
HIDDEN
 62
     8
 10
477.2213018809
 20
278.9454402793
 30
0.0
 11
477.2213018809
 21
274.9454402793
 31
0.0
  0
LINE
  5
22B
  8
DEFAULT_2
  6
HIDDEN
 62
     8
 10
540.5204337066
 20
276.6154402793
 30
0.0
 11
542.8504337066
 21
278.9454402793
 31
0.0
  0
LINE
  5
22C
  8
DEFAULT_2
  6
HIDDEN
 62
     8
 10
536.2204337066
 20
276.6154402793
 30
0.0
 11
533.8904337066
 21
278.9454402793
 31
0.0
  0
LINE
  5
22D
  8
DEFAULT_2
  6
HIDDEN
 62
     8
 10
501.3519617247
 20
274.9454402793
 30
0.0
 11
501.3519617247
 21
278.9454402793
 31
0.0
  0
LINE
  5
22E
  8
DEFAULT_2
  6
HIDDEN
 62
     8
 10
509.8043269595
 20
274.9454402793
 30
0.0
 11
509.8043269595
 21
278.9454402793
 31
0.0
  0
LINE
  5
22F
  8
DEFAULT_2
  6
HIDDEN
 62
     8
 10
518.2204337066
 20
274.9454402793
 30
0.0
 11
518.2204337066
 21
276.6154402793
 31
0.0
  0
LINE
  5
230
  8
DEFAULT_2
  6
HIDDEN
 62
     8
 10
522.5204337066
 20
274.9454402793
 30
0.0
 11
522.5204337066
 21
276.6154402793
 31
0.0
  0
LINE
  5
231
  8
DEFAULT_2
  6
HIDDEN
 62
     8
 10
536.2204337066
 20
274.9454402793
 30
0.0
 11
536.2204337066
 21
276.6154402793
 31
0.0
  0
LINE
  5
232
  8
DEFAULT_2
  6
HIDDEN
 62
     8
 10
540.5204337066
 20
274.9454402793
 30
0.0
 11
540.5204337066
 21
276.6154402793
 31
0.0
  0
LINE
  5
233
  8
0
  6
CONTINUOUS
 62
     7
 10
545.3704337066
 20
274.9454402793
 30
0.0
 11
545.3704337066
 21
278.9454402793
 31
0.0
  0
CIRCLE
  5
238
  8
0
  6
CONTINUOUS
 62
     7
 10
122.3704337066
 20
156.7497133167
 30
0.0
 40
2.15
  0
CIRCLE
  5
239
  8
0
  6
CONTINUOUS
 62
     7
 10
191.3704337066
 20
156.7497133167
 30
0.0
 40
2.15
  0
CIRCLE
  5
23A
  8
0
  6
CONTINUOUS
 62
     7
 10
256.3704337066
 20
156.7497133167
 30
0.0
 40
2.15
  0
CIRCLE
  5
23B
  8
0
  6
CONTINUOUS
 62
     7
 10
104.3704337066
 20
178.7497133167
 30
0.0
 40
2.15
  0
ARC
  5
23C
  8
0
  6
CONTINUOUS
 62
     7
 10
173.9719307671
 20
207.7497133167
 30
0.0
 40
20.0
 50
245.0
 51
270.0
  0
ARC
  5
23D
  8
0
  6
CONTINUOUS
 62
     7
 10
132.9365404538
 20
182.7497133167
 30
0.0
 40
20.0
 50
65.0
 51
90.0
  0
CIRCLE
  5
23F
  8
0
  6
CONTINUOUS
 62
     7
 10
104.3704337066
 20
195.7497133167
 30
0.0
 40
2.15
  0
CIRCLE
  5
245
  8
0
  6
CONTINUOUS
 62
     7
 10
520.3704337066
 20
156.7497133167
 30
0.0
 40
2.15
  0
CIRCLE
  5
246
  8
0
  6
CONTINUOUS
 62
     7
 10
451.3704337066
 20
156.7497133167
 30
0.0
 40
2.15
  0
CIRCLE
  5
247
  8
0
  6
CONTINUOUS
 62
     7
 10
386.3704337066
 20
156.7497133167
 30
0.0
 40
2.15
  0
CIRCLE
  5
248
  8
0
  6
CONTINUOUS
 62
     7
 10
321.3704337066
 20
156.7497133167
 30
0.0
 40
2.15
  0
CIRCLE
  5
249
  8
0
  6
CONTINUOUS
 62
     7
 10
538.3704337066
 20
178.7497133167
 30
0.0
 40
2.15
  0
ARC
  5
24A
  8
0
  6
CONTINUOUS
 62
     7
 10
468.7689366461
 20
207.7497133167
 30
0.0
 40
20.0
 50
270.0
 51
295.0000000000001
  0
ARC
  5
24B
  8
0
  6
CONTINUOUS
 62
     7
 10
509.8043269595
 20
182.7497133167
 30
0.0
 40
20.0
 50
90.0
 51
115.0
  0
CIRCLE
  5
24D
  8
0
  6
CONTINUOUS
 62
     7
 10
538.3704337066
 20
195.7497133167
 30
0.0
 40
2.15
  0
ENDSEC
  0
EOF
