  0
SECTION
  2
HEADER
  9
$ACADVER
  1
AC1009
  9
$DWGCODEPAGE
  3
ansi_1250
  9
$INSBASE
 10
0.0
 20
0.0
 30
0.0
  9
$EXTMIN
 10
0.0
 20
-0.1158860421999997
 30
0.0
  9
$EXTMAX
 10
210.000089
 20
297.0
 30
0.0
  9
$LIMMIN
 10
0.0
 20
0.0
  9
$LIMMAX
 10
210.0
 20
297.0
  9
$ORTHOMODE
 70
     0
  9
$REGENMODE
 70
     1
  9
$FILLMODE
 70
     1
  9
$QTEXTMODE
 70
     0
  9
$MIRRTEXT
 70
     1
  9
$DRAGMODE
 70
     2
  9
$LTSCALE
 40
19.36
  9
$OSMODE
 70
   511
  9
$ATTMODE
 70
     1
  9
$TEXTSIZE
 40
0.2
  9
$TRACEWID
 40
0.05
  9
$TEXTSTYLE
  7
STANDARD
  9
$CLAYER
  8
0
  9
$CELTYPE
  6
BYLAYER
  9
$CECOLOR
 62
   256
  9
$DIMSCALE
 40
1.0
  9
$DIMASZ
 40
3.0
  9
$DIMEXO
 40
1.5
  9
$DIMDLI
 40
13.376
  9
$DIMRND
 40
0.0
  9
$DIMDLE
 40
0.0
  9
$DIMEXE
 40
3.0
  9
$DIMTP
 40
0.0
  9
$DIMTM
 40
0.0
  9
$DIMTXT
 40
2.0
  9
$DIMCEN
 40
3.168
  9
$DIMTSZ
 40
0.0
  9
$DIMTOL
 70
     0
  9
$DIMLIM
 70
     0
  9
$DIMTIH
 70
     1
  9
$DIMTOH
 70
     1
  9
$DIMSE1
 70
     0
  9
$DIMSE2
 70
     0
  9
$DIMTAD
 70
     0
  9
$DIMZIN
 70
     0
  9
$DIMBLK
  1
OPEN
  9
$DIMASO
 70
     1
  9
$DIMSHO
 70
     1
  9
$DIMPOST
  1

  9
$DIMAPOST
  1

  9
$DIMALT
 70
     0
  9
$DIMALTD
 70
     2
  9
$DIMALTF
 40
0.0393700787
  9
$DIMLFAC
 40
1.0
  9
$DIMTOFL
 70
     0
  9
$DIMTVP
 40
0.0
  9
$DIMTIX
 70
     0
  9
$DIMSOXD
 70
     0
  9
$DIMSAH
 70
     0
  9
$DIMBLK1
  1

  9
$DIMBLK2
  1

  9
$DIMSTYLE
  2
STANDARD
  9
$DIMCLRD
 70
     0
  9
$DIMCLRE
 70
     0
  9
$DIMCLRT
 70
     0
  9
$DIMTFAC
 40
1.0
  9
$DIMGAP
 40
0.09
  9
$LUNITS
 70
     2
  9
$LUPREC
 70
     4
  9
$SKETCHINC
 40
0.1
  9
$FILLETRAD
 40
0.5
  9
$AUNITS
 70
     0
  9
$AUPREC
 70
     0
  9
$MENU
  1
.
  9
$ELEVATION
 40
0.0
  9
$PELEVATION
 40
0.0
  9
$THICKNESS
 40
0.0
  9
$LIMCHECK
 70
     0
  9
$CHAMFERA
 40
0.0
  9
$CHAMFERB
 40
0.0
  9
$SKPOLY
 70
     0
  9
$TDCREATE
 40
2458878.602646111
  9
$TDUPDATE
 40
2458878.603268461
  9
$TDINDWG
 40
0.0006188194
  9
$TDUSRTIMER
 40
0.0006188079
  9
$USRTIMER
 70
     1
  9
$ANGBASE
 50
0.0
  9
$ANGDIR
 70
     0
  9
$PDMODE
 70
     3
  9
$PDSIZE
 40
0.3125
  9
$PLINEWID
 40
0.0
  9
$COORDS
 70
     1
  9
$SPLFRAME
 70
     0
  9
$SPLINETYPE
 70
     6
  9
$SPLINESEGS
 70
     8
  9
$ATTDIA
 70
     0
  9
$ATTREQ
 70
     1
  9
$HANDLING
 70
     1
  9
$HANDSEED
  5
268
  9
$SURFTAB1
 70
     6
  9
$SURFTAB2
 70
     6
  9
$SURFTYPE
 70
     6
  9
$SURFU
 70
     6
  9
$SURFV
 70
     6
  9
$UCSNAME
  2

  9
$UCSORG
 10
0.0
 20
0.0
 30
0.0
  9
$UCSXDIR
 10
1.0
 20
0.0
 30
0.0
  9
$UCSYDIR
 10
0.0
 20
1.0
 30
0.0
  9
$PUCSNAME
  2

  9
$PUCSORG
 10
0.0
 20
0.0
 30
0.0
  9
$PUCSXDIR
 10
1.0
 20
0.0
 30
0.0
  9
$PUCSYDIR
 10
0.0
 20
1.0
 30
0.0
  9
$USERI1
 70
     0
  9
$USERI2
 70
     0
  9
$USERI3
 70
     0
  9
$USERI4
 70
     0
  9
$USERI5
 70
     0
  9
$USERR1
 40
0.0
  9
$USERR2
 40
0.0
  9
$USERR3
 40
0.0
  9
$USERR4
 40
0.0
  9
$USERR5
 40
0.0
  9
$WORLDVIEW
 70
     1
  9
$SHADEDGE
 70
     3
  9
$SHADEDIF
 70
    70
  9
$TILEMODE
 70
     1
  9
$MAXACTVP
 70
    64
  9
$PLIMCHECK
 70
     0
  9
$PEXTMIN
 10
1.000000000000000E+20
 20
1.000000000000000E+20
 30
1.000000000000000E+20
  9
$PEXTMAX
 10
-1.000000000000000E+20
 20
-1.000000000000000E+20
 30
-1.000000000000000E+20
  9
$PLIMMIN
 10
0.0
 20
0.0
  9
$PLIMMAX
 10
0.0
 20
0.0
  9
$UNITMODE
 70
     0
  9
$VISRETAIN
 70
     1
  9
$PLINEGEN
 70
     0
  9
$PSLTSCALE
 70
     1
  0
ENDSEC
  0
SECTION
  2
TABLES
  0
TABLE
  2
VPORT
 70
     1
  0
VPORT
  2
*ACTIVE
 70
     0
 10
0.0
 20
0.0
 11
1.0
 21
1.0
 12
147.8528640720898
 22
143.1719555608286
 13
0.0
 23
0.0
 14
0.5
 24
0.5
 15
0.5
 25
0.5
 16
0.0
 26
0.0
 36
1.0
 17
0.0
 27
0.0
 37
0.0
 40
207.1528343444377
 41
1.975124378109453
 42
50.0
 43
0.0
 44
0.0
 50
0.0
 51
0.0
 71
    16
 72
   100
 73
     1
 74
     3
 75
     0
 76
     0
 77
     0
 78
     0
  0
ENDTAB
  0
TABLE
  2
LTYPE
 70
     6
  0
LTYPE
  2
CONTINUOUS
 70
     0
  3
Solid line
 72
    65
 73
     0
 40
0.0
  0
LTYPE
  2
CENTER
 70
     0
  3
____ _ ____ _ ____ _ ____ _ ____ _ ____ _ ____
 72
    65
 73
     4
 40
0.6
 49
0.375
 49
-0.075
 49
0.075
 49
-0.075
  0
LTYPE
  2
HIDDEN
 70
     0
  3
- - - - - - - - - - - - - - - - - - - -
 72
    65
 73
     2
 40
0.2
 49
0.1
 49
-0.1
  0
LTYPE
  2
PHANTOM
 70
     0
  3
_____ _ _ _____ _ _ _____ _ _ _____
 72
    65
 73
     6
 40
0.8
 49
0.45
 49
-0.05
 49
0.1
 49
-0.05
 49
0.1
 49
-0.05
  0
LTYPE
  2
DOT
 70
     0
  3
. . . . . . . . . . . . . . . . . . . .
 72
    65
 73
     2
 40
0.2
 49
0.1
 49
-0.1
  0
LTYPE
  2
DASHED
 70
     0
  3
- - - - - - - - - - - - - - - - - - - -
 72
    65
 73
     2
 40
0.2
 49
0.1
 49
-0.1
  0
ENDTAB
  0
TABLE
  2
LAYER
 70
    13
  0
LAYER
  2
0
 70
     0
 62
     7
  6
CONTINUOUS
  0
LAYER
  2
DEFAULT_1
 70
     0
 62
     7
  6
CENTER
  0
LAYER
  2
DEFAULT_2
 70
     0
 62
     8
  6
HIDDEN
  0
LAYER
  2
DEFAULT_3
 70
     0
 62
     7
  6
PHANTOM
  0
LAYER
  2
1_AXES
 70
     0
 62
     7
  6
CONTINUOUS
  0
LAYER
  2
5_COURBES
 70
     0
 62
     7
  6
CONTINUOUS
  0
LAYER
  2
COORDINATE_SYSTEM_LAY
 70
     0
 62
     7
  6
CONTINUOUS
  0
LAYER
  2
COPY_GEOMETRY_LAY
 70
     0
 62
     7
  6
CONTINUOUS
  0
LAYER
  2
COURVES_LAY
 70
     0
 62
     7
  6
CONTINUOUS
  0
LAYER
  2
DTM_LAY
 70
     0
 62
     7
  6
CONTINUOUS
  0
LAYER
  2
HIDDEN
 70
     0
 62
     7
  6
CONTINUOUS
  0
LAYER
  2
INTERSECT
 70
     0
 62
     7
  6
CONTINUOUS
  0
LAYER
  2
DEFPOINTS
 70
     0
 62
     7
  6
CONTINUOUS
  0
ENDTAB
  0
TABLE
  2
STYLE
 70
    11
  0
STYLE
  2
STANDARD
 70
     0
 40
0.0
 41
0.8
 50
0.0
 71
     0
 42
0.2
  3
txt
  4

  0
STYLE
  2
TEXTSTYLE_1
 70
     0
 40
0.0
 41
0.8
 50
0.0
 71
     0
 42
0.2
  3
gdt
  4

  0
STYLE
  2
TEXTSTYLE_2
 70
     0
 40
0.0
 41
0.6
 50
0.0
 71
     0
 42
0.2
  3
txt
  4

  0
STYLE
  2
TEXTSTYLE_3
 70
     0
 40
0.0
 41
1.0
 50
0.0
 71
     0
 42
0.2
  3
txt
  4

  0
STYLE
  2
TEXTSTYLE_4
 70
     0
 40
0.0
 41
1.0
 50
0.0
 71
     0
 42
0.2
  3
shanno.ttf
  4

  0
STYLE
  2
TEXTSTYLE_5
 70
     0
 40
0.0
 41
1.0
 50
0.0
 71
     0
 42
0.2
  3
shanno.ttf
  4

  0
STYLE
  2
TEXTSTYLE_6
 70
     0
 40
0.0
 41
1.0
 50
0.0
 71
     0
 42
0.2
  3
shannob.ttf
  4

  0
STYLE
  2
TEXTSTYLE_7
 70
     0
 40
0.0
 41
1.0
 50
0.0
 71
     0
 42
0.2
  3
symbol_asme.ttf
  4

  0
STYLE
  2
TEXTSTYLE_8
 70
     0
 40
0.0
 41
1.0
 50
0.0
 71
     0
 42
0.2
  3
symbol_asme.ttf
  4

  0
STYLE
  2
TEXTSTYLE_9
 70
     0
 40
0.0
 41
1.0
 50
0.0
 71
     0
 42
0.2
  3
shannob.ttf
  4

  0
STYLE
  2
TEXTSTYLE_10
 70
     0
 40
0.0
 41
1.0
 50
0.0
 71
     0
 42
0.2
  3
shannob.ttf
  4

  0
ENDTAB
  0
TABLE
  2
VIEW
 70
     0
  0
ENDTAB
  0
TABLE
  2
UCS
 70
     0
  0
ENDTAB
  0
TABLE
  2
APPID
 70
     1
  0
APPID
  2
ACAD
 70
     0
  0
ENDTAB
  0
TABLE
  2
DIMSTYLE
 70
     1
  0
DIMSTYLE
  2
STANDARD
 70
     0
  3

  4

  5

  6

  7

 40
1.0
 41
0.18
 42
0.0625
 43
0.38
 44
0.18
 45
0.0
 46
0.0
 47
0.0
 48
0.0
140
0.18
141
0.09
142
0.0
143
25.4
144
1.0
145
0.0
146
1.0
147
0.09
 71
     0
 72
     0
 73
     1
 74
     1
 75
     0
 76
     0
 77
     0
 78
     0
170
     0
171
     2
172
     0
173
     0
174
     0
175
     0
176
     0
177
     0
178
     0
  0
ENDTAB
  0
ENDSEC
  0
SECTION
  2
BLOCKS
  0
BLOCK
  8
0
  2
$MODEL_SPACE
 70
     0
 10
0.0
 20
0.0
 30
0.0
  3
$MODEL_SPACE
  1

  0
ENDBLK
  5
223
  8
0
  0
BLOCK
 67
     1
  8
0
  2
$PAPER_SPACE
 70
     0
 10
0.0
 20
0.0
 30
0.0
  3
$PAPER_SPACE
  1

  0
ENDBLK
  5
225
 67
     1
  8
0
  0
BLOCK
  8
0
  2
REPERE_ORIENTATION_BL1
 70
     0
 10
105.0112637584
 20
6.8841139578
 30
0.0
  3
REPERE_ORIENTATION_BL1
  1

  0
LINE
  5
47
  8
0
  6
CONTINUOUS
 62
     7
 10
105.0112637584
 20
6.8841139578
 30
0.0
 11
101.0112637584
 21
10.8841139578
 31
0.0
  0
LINE
  5
48
  8
0
  6
CONTINUOUS
 62
     7
 10
109.0112637584
 20
10.8841139578
 30
0.0
 11
101.0112637584
 21
10.8841139578
 31
0.0
  0
LINE
  5
49
  8
0
  6
CONTINUOUS
 62
     7
 10
105.0112637584
 20
6.8841139578
 30
0.0
 11
109.0112637584
 21
10.8841139578
 31
0.0
  0
LINE
  5
4A
  8
0
  6
CONTINUOUS
 62
     7
 10
101.0112637584
 20
10.8841139578
 30
0.0
 11
105.0112637584
 21
-0.1158860422
 31
0.0
  0
LINE
  5
4B
  8
0
  6
CONTINUOUS
 62
     7
 10
105.0112637584
 20
-0.1158860422
 30
0.0
 11
109.0112637584
 21
10.8841139578
 31
0.0
  0
LINE
  5
4C
  8
0
  6
CONTINUOUS
 62
     7
 10
105.0112637584
 20
13.8841139578
 30
0.0
 11
105.0112637584
 21
10.8841139578
 31
0.0
  0
LINE
  5
4D
  8
0
  6
CONTINUOUS
 62
     7
 10
105.0112637584
 20
6.8841139578
 30
0.0
 11
105.0112637584
 21
-0.1158860422
 31
0.0
  0
LINE
  5
4E
  8
0
  6
CONTINUOUS
 62
     7
 10
108.0112637584
 20
9.8841139578
 30
0.0
 11
102.0112637584
 21
9.8841139578
 31
0.0
  0
SOLID
  5
4F
  8
0
  6
CONTINUOUS
 62
     7
 10
101.0112637584
 20
10.8841139578
 30
0.0
 11
105.0112637584
 21
6.8841139578
 31
0.0
 12
109.0112637584
 22
10.8841139578
 32
0.0
 13
109.0112637584
 23
10.8841139578
 33
0.0
  0
ENDBLK
  5
50
  8
0
  6
BYBLOCK
 62
     0
  0
BLOCK
  8
0
  2
MARGEA4_BL0
 70
     0
 10
105.0000445
 20
148.5
 30
0.0
  3
MARGEA4_BL0
  1

  0
TEXT
  5
53
  8
0
  6
CONTINUOUS
 62
     2
 10
24.5
 20
287.0
 30
0.0
 40
3.5
  1
D
 50
270.0
 51
0.000018724
  7
TEXTSTYLE_3
  0
TEXT
  5
54
  8
0
  6
CONTINUOUS
 62
     2
 10
77.0
 20
287.0
 30
0.0
 40
3.5
  1
C
 50
270.0
 51
0.000018724
  7
TEXTSTYLE_3
  0
TEXT
  5
55
  8
0
  6
CONTINUOUS
 62
     2
 10
129.5
 20
287.0
 30
0.0
 40
3.5
  1
B
 50
270.0
 51
0.000018724
  7
TEXTSTYLE_3
  0
TEXT
  5
56
  8
0
  6
CONTINUOUS
 62
     2
 10
182.0
 20
287.0
 30
0.0
 40
3.5
  1
A
 50
270.0
 51
0.000018724
  7
TEXTSTYLE_3
  0
TEXT
  5
57
  8
0
  6
CONTINUOUS
 62
     2
 10
24.5
 20
5.0
 30
0.0
 40
3.5
  1
D
 51
0.000018724
  7
TEXTSTYLE_3
  0
TEXT
  5
58
  8
0
  6
CONTINUOUS
 62
     2
 10
77.0
 20
5.0
 30
0.0
 40
3.5
  1
C
 51
0.000018724
  7
TEXTSTYLE_3
  0
TEXT
  5
59
  8
0
  6
CONTINUOUS
 62
     2
 10
129.5
 20
5.0
 30
0.0
 40
3.5
  1
B
 51
0.000018724
  7
TEXTSTYLE_3
  0
TEXT
  5
5A
  8
0
  6
CONTINUOUS
 62
     2
 10
182.0
 20
5.0
 30
0.0
 40
3.5
  1
A
 51
0.000018724
  7
TEXTSTYLE_3
  0
TEXT
  5
5B
  8
0
  6
CONTINUOUS
 62
     2
 10
196.5
 20
258.125
 30
0.0
 40
3.5
  1
4
 51
0.000018724
  7
TEXTSTYLE_3
  0
TEXT
  5
5C
  8
0
  6
CONTINUOUS
 62
     2
 10
196.5
 20
183.875
 30
0.0
 40
3.5
  1
3
 51
0.000018724
  7
TEXTSTYLE_3
  0
TEXT
  5
5D
  8
0
  6
CONTINUOUS
 62
     2
 10
196.5
 20
109.625
 30
0.0
 40
3.5
  1
2
 51
0.000018724
  7
TEXTSTYLE_3
  0
TEXT
  5
5E
  8
0
  6
CONTINUOUS
 62
     2
 10
196.5
 20
35.375
 30
0.0
 40
3.5
  1
1
 51
0.000018724
  7
TEXTSTYLE_3
  0
TEXT
  5
5F
  8
0
  6
CONTINUOUS
 62
     2
 10
10.334905409
 20
260.8408315976
 30
0.0
 40
3.5
  1
4
 50
270.0
 51
0.000018724
  7
TEXTSTYLE_3
  0
TEXT
  5
60
  8
0
  6
CONTINUOUS
 62
     2
 10
10.5061279578
 20
38.3013605734
 30
0.0
 40
3.5
  1
1
 50
270.0
 51
0.000018724
  7
TEXTSTYLE_3
  0
LINE
  5
61
  8
0
  6
CONTINUOUS
 62
     7
 10
0.0
 20
0.0
 30
0.0
 11
210.0
 21
0.0
 31
0.0
  0
LINE
  5
62
  8
0
  6
CONTINUOUS
 62
     7
 10
210.0
 20
0.0
 30
0.0
 11
210.0
 21
297.0
 31
0.0
  0
LINE
  5
63
  8
0
  6
CONTINUOUS
 62
     7
 10
0.0
 20
297.0
 30
0.0
 11
210.0
 21
297.0
 31
0.0
  0
LINE
  5
64
  8
0
  6
CONTINUOUS
 62
     7
 10
0.0
 20
0.0
 30
0.0
 11
0.0
 21
297.0
 31
0.0
  0
LINE
  5
65
  8
0
  6
CONTINUOUS
 62
     7
 10
200.0
 20
297.0
 30
0.0
 11
210.0
 21
287.0
 31
0.0
  0
LINE
  5
66
  8
0
  6
CONTINUOUS
 62
     7
 10
210.0
 20
287.0
 30
0.0
 11
210.0
 21
297.0
 31
0.0
  0
LINE
  5
67
  8
0
  6
CONTINUOUS
 62
     7
 10
210.0
 20
297.0
 30
0.0
 11
200.0
 21
297.0
 31
0.0
  0
LINE
  5
68
  8
0
  6
CONTINUOUS
 62
     7
 10
10.0
 20
297.0
 30
0.0
 11
0.0
 21
287.0
 31
0.0
  0
LINE
  5
69
  8
0
  6
CONTINUOUS
 62
     7
 10
0.0
 20
287.0
 30
0.0
 11
0.0
 21
297.0
 31
0.0
  0
LINE
  5
6A
  8
0
  6
CONTINUOUS
 62
     7
 10
0.0
 20
297.0
 30
0.0
 11
10.0
 21
297.0
 31
0.0
  0
LINE
  5
6B
  8
0
  6
CONTINUOUS
 62
     7
 10
210.0
 20
10.0
 30
0.0
 11
200.0
 21
0.0
 31
0.0
  0
LINE
  5
6C
  8
0
  6
CONTINUOUS
 62
     7
 10
200.0
 20
0.0
 30
0.0
 11
210.0
 21
0.0
 31
0.0
  0
LINE
  5
6D
  8
0
  6
CONTINUOUS
 62
     7
 10
210.0
 20
0.0
 30
0.0
 11
210.0
 21
10.0
 31
0.0
  0
LINE
  5
6E
  8
0
  6
CONTINUOUS
 62
     7
 10
10.0
 20
0.0
 30
0.0
 11
0.0
 21
10.0
 31
0.0
  0
LINE
  5
6F
  8
0
  6
CONTINUOUS
 62
     7
 10
0.0
 20
10.0
 30
0.0
 11
0.0
 21
0.0
 31
0.0
  0
LINE
  5
70
  8
0
  6
CONTINUOUS
 62
     7
 10
0.0
 20
0.0
 30
0.0
 11
10.0
 21
0.0
 31
0.0
  0
LINE
  5
71
  8
0
  6
CONTINUOUS
 62
     7
 10
10.0
 20
297.0
 30
0.0
 11
0.0
 21
287.0
 31
0.0
  0
LINE
  5
72
  8
0
  6
CONTINUOUS
 62
     7
 10
10.0
 20
0.0
 30
0.0
 11
0.0
 21
10.0
 31
0.0
  0
LINE
  5
73
  8
0
  6
CONTINUOUS
 62
     7
 10
0.000001
 20
0.0
 30
0.0
 11
210.000089
 21
0.0
 31
0.0
  0
LINE
  5
74
  8
0
  6
CONTINUOUS
 62
     7
 10
15.0
 20
10.0
 30
0.0
 11
195.0
 21
10.0
 31
0.0
  0
LINE
  5
75
  8
0
  6
CONTINUOUS
 62
     7
 10
0.0
 20
0.0
 30
0.0
 11
0.0
 21
297.0
 31
0.0
  0
LINE
  5
76
  8
0
  6
CONTINUOUS
 62
     7
 10
12.0
 20
48.5
 30
0.0
 11
12.0
 21
248.5
 31
0.0
  0
LINE
  5
77
  8
0
  6
CONTINUOUS
 62
     7
 10
10.0
 20
48.5
 30
0.0
 11
15.0
 21
48.5
 31
0.0
  0
LINE
  5
78
  8
0
  6
CONTINUOUS
 62
     7
 10
15.0
 20
10.0
 30
0.0
 11
15.0
 21
282.0
 31
0.0
  0
LINE
  5
79
  8
0
  6
CONTINUOUS
 62
     7
 10
12.0
 20
58.5
 30
0.0
 11
15.0
 21
58.5
 31
0.0
  0
LINE
  5
7A
  8
0
  6
CONTINUOUS
 62
     7
 10
12.0
 20
68.5
 30
0.0
 11
15.0
 21
68.5
 31
0.0
  0
LINE
  5
7B
  8
0
  6
CONTINUOUS
 62
     7
 10
200.0
 20
74.25
 30
0.0
 11
195.0
 21
74.25
 31
0.0
  0
LINE
  5
7C
  8
0
  6
CONTINUOUS
 62
     7
 10
12.0
 20
78.5
 30
0.0
 11
15.0
 21
78.5
 31
0.0
  0
LINE
  5
7D
  8
0
  6
CONTINUOUS
 62
     7
 10
12.0
 20
88.5
 30
0.0
 11
15.0
 21
88.5
 31
0.0
  0
LINE
  5
7E
  8
0
  6
CONTINUOUS
 62
     7
 10
52.5
 20
287.0
 30
0.0
 11
52.5
 21
282.0
 31
0.0
  0
LINE
  5
7F
  8
0
  6
CONTINUOUS
 62
     7
 10
52.5
 20
5.0
 30
0.0
 11
52.5
 21
10.0
 31
0.0
  0
LINE
  5
80
  8
0
  6
CONTINUOUS
 62
     7
 10
10.0
 20
98.5
 30
0.0
 11
15.0
 21
98.5
 31
0.0
  0
LINE
  5
81
  8
0
  6
CONTINUOUS
 62
     7
 10
12.0
 20
108.5
 30
0.0
 11
15.0
 21
108.5
 31
0.0
  0
LINE
  5
82
  8
0
  6
CONTINUOUS
 62
     7
 10
12.0
 20
118.5
 30
0.0
 11
15.0
 21
118.5
 31
0.0
  0
LINE
  5
83
  8
0
  6
CONTINUOUS
 62
     7
 10
12.0
 20
128.5
 30
0.0
 11
15.0
 21
128.5
 31
0.0
  0
LINE
  5
84
  8
0
  6
CONTINUOUS
 62
     7
 10
105.0
 20
297.0
 30
0.0
 11
105.0
 21
282.0
 31
0.0
  0
LINE
  5
85
  8
0
  6
CONTINUOUS
 62
     7
 10
12.0
 20
138.5
 30
0.0
 11
15.0
 21
138.5
 31
0.0
  0
LINE
  5
86
  8
0
  6
CONTINUOUS
 62
     7
 10
210.0
 20
148.5
 30
0.0
 11
195.0
 21
148.5
 31
0.0
  0
LINE
  5
87
  8
0
  6
CONTINUOUS
 62
     7
 10
12.0
 20
158.5
 30
0.0
 11
15.0
 21
158.5
 31
0.0
  0
LINE
  5
88
  8
0
  6
CONTINUOUS
 62
     7
 10
12.0
 20
168.5
 30
0.0
 11
15.0
 21
168.5
 31
0.0
  0
LINE
  5
89
  8
0
  6
CONTINUOUS
 62
     7
 10
12.0
 20
178.5
 30
0.0
 11
15.0
 21
178.5
 31
0.0
  0
LINE
  5
8A
  8
0
  6
CONTINUOUS
 62
     7
 10
12.0
 20
188.5
 30
0.0
 11
15.0
 21
188.5
 31
0.0
  0
LINE
  5
8B
  8
0
  6
CONTINUOUS
 62
     7
 10
10.0
 20
198.5
 30
0.0
 11
15.0
 21
198.5
 31
0.0
  0
LINE
  5
8C
  8
0
  6
CONTINUOUS
 62
     7
 10
157.5
 20
287.0
 30
0.0
 11
157.5
 21
282.0
 31
0.0
  0
LINE
  5
8D
  8
0
  6
CONTINUOUS
 62
     7
 10
157.5
 20
5.0
 30
0.0
 11
157.5
 21
10.0
 31
0.0
  0
LINE
  5
8E
  8
0
  6
CONTINUOUS
 62
     7
 10
12.0
 20
208.5
 30
0.0
 11
15.0
 21
208.5
 31
0.0
  0
LINE
  5
8F
  8
0
  6
CONTINUOUS
 62
     7
 10
12.0
 20
218.5
 30
0.0
 11
15.0
 21
218.5
 31
0.0
  0
LINE
  5
90
  8
0
  6
CONTINUOUS
 62
     7
 10
200.0
 20
222.75
 30
0.0
 11
195.0
 21
222.75
 31
0.0
  0
LINE
  5
91
  8
0
  6
CONTINUOUS
 62
     7
 10
12.0
 20
228.5
 30
0.0
 11
15.0
 21
228.5
 31
0.0
  0
LINE
  5
92
  8
0
  6
CONTINUOUS
 62
     7
 10
195.0
 20
10.0
 30
0.0
 11
195.0
 21
282.0
 31
0.0
  0
LINE
  5
93
  8
0
  6
CONTINUOUS
 62
     7
 10
12.0
 20
238.5
 30
0.0
 11
15.0
 21
238.5
 31
0.0
  0
LINE
  5
94
  8
0
  6
CONTINUOUS
 62
     7
 10
10.0
 20
248.5
 30
0.0
 11
15.0
 21
248.5
 31
0.0
  0
LINE
  5
95
  8
0
  6
CONTINUOUS
 62
     7
 10
195.0
 20
282.0
 30
0.0
 11
15.0
 21
282.0
 31
0.0
  0
LINE
  5
96
  8
0
  6
CONTINUOUS
 62
     7
 10
0.000001
 20
296.999914
 30
0.0
 11
210.000089
 21
296.999914
 31
0.0
  0
LINE
  5
97
  8
0
  6
CONTINUOUS
 62
     7
 10
210.0
 20
297.0
 30
0.0
 11
0.0
 21
297.0
 31
0.0
  0
LINE
  5
98
  8
0
  6
CONTINUOUS
 62
     7
 10
200.0
 20
0.0
 30
0.0
 11
210.0
 21
10.0
 31
0.0
  0
LINE
  5
99
  8
0
  6
CONTINUOUS
 62
     7
 10
200.0
 20
297.0
 30
0.0
 11
210.0
 21
287.0
 31
0.0
  0
SOLID
  5
9A
  8
0
  6
CONTINUOUS
 62
     7
 10
200.0
 20
297.0
 30
0.0
 11
210.0
 21
287.0
 31
0.0
 12
210.0
 22
297.0
 32
0.0
 13
210.0
 23
297.0
 33
0.0
  0
SOLID
  5
9B
  8
0
  6
CONTINUOUS
 62
     7
 10
10.0
 20
297.0
 30
0.0
 11
0.0
 21
287.0
 31
0.0
 12
0.0
 22
297.0
 32
0.0
 13
0.0
 23
297.0
 33
0.0
  0
SOLID
  5
9C
  8
0
  6
CONTINUOUS
 62
     7
 10
210.0
 20
10.0
 30
0.0
 11
200.0
 21
0.0
 31
0.0
 12
210.0
 22
0.0
 32
0.0
 13
210.0
 23
0.0
 33
0.0
  0
SOLID
  5
9D
  8
0
  6
CONTINUOUS
 62
     7
 10
10.0
 20
0.0
 30
0.0
 11
0.0
 21
10.0
 31
0.0
 12
0.0
 22
0.0
 32
0.0
 13
0.0
 23
0.0
 33
0.0
  0
LINE
  5
9E
  8
0
  6
CONTINUOUS
 62
     7
 10
0.0
 20
148.5
 30
0.0
 11
15.0
 21
148.5
 31
0.0
  0
LINE
  5
9F
  8
0
  6
CONTINUOUS
 62
     7
 10
105.0
 20
0.0
 30
0.0
 11
105.0
 21
10.0
 31
0.0
  0
ENDBLK
  5
A0
  8
0
  6
BYBLOCK
 62
     0
  0
BLOCK
  8
0
  2
_OPEN
 70
     0
 10
0.0
 20
0.0
 30
0.0
  3
_OPEN
  1

  0
LINE
  5
A3
  8
0
  6
BYBLOCK
 62
     0
 10
0.0
 20
0.0
 30
0.0
 11
-1.0
 21
0.25
 31
0.0
  0
LINE
  5
A4
  8
0
  6
BYBLOCK
 62
     0
 10
-1.0
 20
-0.25
 30
0.0
 11
0.0
 21
0.0
 31
0.0
  0
LINE
  5
A5
  8
0
  6
BYBLOCK
 62
     0
 10
-1.0
 20
0.0
 30
0.0
 11
0.0
 21
0.0
 31
0.0
  0
ENDBLK
  5
A6
  8
0
  6
BYBLOCK
 62
     0
  0
BLOCK
  8
0
  2
*D3
 70
     1
 10
0.0
 20
0.0
 30
0.0
  3
*D3
  1

  0
TEXT
  5
A9
  8
0
  6
CONTINUOUS
 62
     2
 10
42.71218022213333
 20
97.4707089988
 30
0.0
 40
2.0
  1
25
 41
0.8
 72
     2
 11
45.3788468888
 21
97.4707089988
 31
0.0
  0
LINE
  5
AA
  8
0
  6
CONTINUOUS
 62
     2
 10
56.0058784573
 20
96.9707089988
 30
0.0
 11
46.3788468888
 21
96.9707089988
 31
0.0
  0
ENDBLK
  5
AB
  8
0
  6
BYBLOCK
 62
     0
  0
BLOCK
  8
0
  2
*D4
 70
     1
 10
0.0
 20
0.0
 30
0.0
  3
*D4
  1

  0
TEXT
  5
AE
  8
0
  6
CONTINUOUS
 62
     2
 10
44.5788468888
 20
72.4707089988
 30
0.0
 40
2.0
  1
0
 41
0.8
 72
     2
 11
45.3788468888
 21
72.4707089988
 31
0.0
  0
LINE
  5
AF
  8
0
  6
CONTINUOUS
 62
     2
 10
52.0058784573
 20
71.9707089988
 30
0.0
 11
46.3788468888
 21
71.9707089988
 31
0.0
  0
ENDBLK
  5
B0
  8
0
  6
BYBLOCK
 62
     0
  0
BLOCK
  8
0
  2
*D5
 70
     1
 10
0.0
 20
0.0
 30
0.0
  3
*D5
  1

  0
TEXT
  5
B3
  8
0
  6
CONTINUOUS
 62
     2
 10
42.71218022213333
 20
135.4707089988
 30
0.0
 40
2.0
  1
63
 41
0.8
 72
     2
 11
45.3788468888
 21
135.4707089988
 31
0.0
  0
LINE
  5
B4
  8
0
  6
CONTINUOUS
 62
     2
 10
56.0058784573
 20
134.9707089988
 30
0.0
 11
46.3788468888
 21
134.9707089988
 31
0.0
  0
ENDBLK
  5
B5
  8
0
  6
BYBLOCK
 62
     0
  0
BLOCK
  8
0
  2
*D6
 70
     1
 10
0.0
 20
0.0
 30
0.0
  3
*D6
  1

  0
TEXT
  5
B8
  8
0
  6
CONTINUOUS
 62
     2
 10
42.44551355546667
 20
173.4707089988
 30
0.0
 40
2.0
  1
101
 41
0.8
 72
     2
 11
45.3788468888
 21
173.4707089988
 31
0.0
  0
LINE
  5
B9
  8
0
  6
CONTINUOUS
 62
     2
 10
56.0058784573
 20
172.9707089988
 30
0.0
 11
46.3788468888
 21
172.9707089988
 31
0.0
  0
ENDBLK
  5
BA
  8
0
  6
BYBLOCK
 62
     0
  0
BLOCK
  8
0
  2
*D7
 70
     1
 10
0.0
 20
0.0
 30
0.0
  3
*D7
  1

  0
TEXT
  5
BD
  8
0
  6
CONTINUOUS
 62
     2
 10
41.64551355546666
 20
211.4707089988
 30
0.0
 40
2.0
  1
139
 41
0.8
 72
     2
 11
45.3788468888
 21
211.4707089988
 31
0.0
  0
LINE
  5
BE
  8
0
  6
CONTINUOUS
 62
     2
 10
56.0058784573
 20
210.9707089988
 30
0.0
 11
46.3788468888
 21
210.9707089988
 31
0.0
  0
ENDBLK
  5
BF
  8
0
  6
BYBLOCK
 62
     0
  0
BLOCK
  8
0
  2
*D8
 70
     1
 10
0.0
 20
0.0
 30
0.0
  3
*D8
  1

  0
TEXT
  5
C2
  8
0
  6
CONTINUOUS
 62
     2
 10
41.64551355546666
 20
249.4707089988
 30
0.0
 40
2.0
  1
177
 41
0.8
 72
     2
 11
45.3788468888
 21
249.4707089988
 31
0.0
  0
LINE
  5
C3
  8
0
  6
CONTINUOUS
 62
     2
 10
56.0058784573
 20
248.9707089988
 30
0.0
 11
46.3788468888
 21
248.9707089988
 31
0.0
  0
ENDBLK
  5
C4
  8
0
  6
BYBLOCK
 62
     0
  0
BLOCK
  8
0
  2
*D9
 70
     1
 10
0.0
 20
0.0
 30
0.0
  3
*D9
  1

  0
TEXT
  5
C7
  8
0
  6
CONTINUOUS
 62
     2
 10
41.3788468888
 20
274.4707089988
 30
0.0
 40
2.0
  1
202
 41
0.8
 72
     2
 11
45.3788468888
 21
274.4707089988
 31
0.0
  0
LINE
  5
C8
  8
0
  6
CONTINUOUS
 62
     2
 10
52.0058784573
 20
273.9707089988
 30
0.0
 11
46.3788468888
 21
273.9707089988
 31
0.0
  0
ENDBLK
  5
C9
  8
0
  6
BYBLOCK
 62
     0
  0
BLOCK
  8
0
  2
*D10
 70
     1
 10
0.0
 20
0.0
 30
0.0
  3
*D10
  1

  0
TEXT
  5
CC
  8
0
  6
CONTINUOUS
 62
     2
 10
111.7357967241
 20
267.4707089988
 30
0.0
 40
2.0
  1
195
 41
0.8
  0
LINE
  5
CD
  8
0
  6
CONTINUOUS
 62
     2
 10
78.0058784573
 20
266.9707089988
 30
0.0
 11
110.7357967241
 21
266.9707089988
 31
0.0
  0
ENDBLK
  5
CE
  8
0
  6
BYBLOCK
 62
     0
  0
BLOCK
  8
0
  2
*D11
 70
     1
 10
0.0
 20
0.0
 30
0.0
  3
*D11
  1

  0
TEXT
  5
D1
  8
0
  6
CONTINUOUS
 62
     2
 10
110.4243057123
 20
79.4707089988
 30
0.0
 40
2.0
  1
7
 41
0.8
  0
LINE
  5
D2
  8
0
  6
CONTINUOUS
 62
     2
 10
78.0058784573
 20
78.9707089988
 30
0.0
 11
109.4243057123
 21
78.9707089988
 31
0.0
  0
ENDBLK
  5
D3
  8
0
  6
BYBLOCK
 62
     0
  0
BLOCK
  8
0
  2
*D12
 70
     1
 10
0.0
 20
0.0
 30
0.0
  3
*D12
  1

  0
TEXT
  5
D6
  8
0
  6
CONTINUOUS
 62
     2
 10
57.0058784573
 20
66.76163522603333
 30
0.0
 40
2.0
  1
4
 50
90.0
 41
0.8
 72
     2
 11
57.0058784573
 21
67.8283018927
 31
0.0
  0
LINE
  5
D7
  8
0
  6
CONTINUOUS
 62
     2
 10
57.5058784573
 20
93.2207089988
 30
0.0
 11
57.5058784573
 21
68.8283018927
 31
0.0
  0
ENDBLK
  5
D8
  8
0
  6
BYBLOCK
 62
     0
  0
BLOCK
  8
0
  2
*D13
 70
     1
 10
0.0
 20
0.0
 30
0.0
  3
*D13
  1

  0
TEXT
  5
DB
  8
0
  6
CONTINUOUS
 62
     2
 10
53.0058784573
 20
67.0283018927
 30
0.0
 40
2.0
  1
0
 50
90.0
 41
0.8
 72
     2
 11
53.0058784573
 21
67.8283018927
 31
0.0
  0
LINE
  5
DC
  8
0
  6
CONTINUOUS
 62
     2
 10
53.5058784573
 20
70.4707089988
 30
0.0
 11
53.5058784573
 21
68.8283018927
 31
0.0
  0
ENDBLK
  5
DD
  8
0
  6
BYBLOCK
 62
     0
  0
BLOCK
  8
0
  2
*D14
 70
     1
 10
0.0
 20
0.0
 30
0.0
  3
*D14
  1

  0
TEXT
  5
E0
  8
0
  6
CONTINUOUS
 62
     2
 10
76.0058784573
 20
65.16163522603333
 30
0.0
 40
2.0
  1
23
 50
90.0
 41
0.8
 72
     2
 11
76.0058784573
 21
67.8283018927
 31
0.0
  0
LINE
  5
E1
  8
0
  6
CONTINUOUS
 62
     2
 10
76.5058784573
 20
77.4707089988
 30
0.0
 11
76.5058784573
 21
68.8283018927
 31
0.0
  0
ENDBLK
  5
E2
  8
0
  6
BYBLOCK
 62
     0
  0
BLOCK
  8
0
  2
*D15
 70
     1
 10
0.0
 20
0.0
 30
0.0
  3
*D15
  1

  0
TEXT
  5
E5
  8
0
  6
CONTINUOUS
 62
     2
 10
96.0058784573
 20
65.16163522603333
 30
0.0
 40
2.0
  1
43
 50
90.0
 41
0.8
 72
     2
 11
96.0058784573
 21
67.8283018927
 31
0.0
  0
LINE
  5
E6
  8
0
  6
CONTINUOUS
 62
     2
 10
96.5058784573
 20
77.4707089988
 30
0.0
 11
96.5058784573
 21
68.8283018927
 31
0.0
  0
ENDBLK
  5
E7
  8
0
  6
BYBLOCK
 62
     0
  0
BLOCK
  8
0
  2
*D16
 70
     1
 10
0.0
 20
0.0
 30
0.0
  3
*D16
  1

  0
TEXT
  5
EA
  8
0
  6
CONTINUOUS
 62
     2
 10
105.0058784573
 20
65.16163522603333
 30
0.0
 40
2.0
  1
52
 50
90.0
 41
0.8
 72
     2
 11
105.0058784573
 21
67.8283018927
 31
0.0
  0
LINE
  5
EB
  8
0
  6
CONTINUOUS
 62
     2
 10
105.5058784573
 20
70.4707089988
 30
0.0
 11
105.5058784573
 21
68.8283018927
 31
0.0
  0
ENDBLK
  5
EC
  8
0
  6
BYBLOCK
 62
     0
  0
BLOCK
  8
0
  2
*D17
 70
     1
 10
0.0
 20
0.0
 30
0.0
  3
*D17
  1

  0
TEXT
  5
EF
  8
0
  6
CONTINUOUS
 62
     2
 10
76.0058784573
 20
276.7772294166
 30
0.0
 40
2.0
  1
23
 50
90.0
 41
0.8
  0
LINE
  5
F0
  8
0
  6
CONTINUOUS
 62
     2
 10
76.5058784573
 20
268.4707089988
 30
0.0
 11
76.5058784573
 21
275.7772294166
 31
0.0
  0
ENDBLK
  5
F1
  8
0
  6
BYBLOCK
 62
     0
  0
BLOCK
  8
0
  2
*D18
 70
     1
 10
0.0
 20
0.0
 30
0.0
  3
*D18
  1

  0
TEXT
  5
F4
  8
0
  6
CONTINUOUS
 62
     2
 10
96.0058784573
 20
276.7772294166
 30
0.0
 40
2.0
  1
43
 50
90.0
 41
0.8
  0
LINE
  5
F5
  8
0
  6
CONTINUOUS
 62
     2
 10
96.5058784573
 20
268.4707089988
 30
0.0
 11
96.5058784573
 21
275.7772294166
 31
0.0
  0
ENDBLK
  5
F6
  8
0
  6
BYBLOCK
 62
     0
  0
BLOCK
  8
0
  2
*D19
 70
     1
 10
0.0
 20
0.0
 30
0.0
  3
*D19
  1

  0
TEXT
  5
F9
  8
0
  6
CONTINUOUS
 62
     2
 10
59.05428889326667
 20
261.8232399979
 30
0.0
 40
2.0
  1
n
  7
TEXTSTYLE_1
 72
     2
 11
61.2001222266
 21
261.8232399979
 31
0.0
  0
TEXT
  5
FA
  8
0
  6
CONTINUOUS
 62
     2
 10
62.8001222266
 20
261.8232399979
 30
0.0
 40
2.0
  1
4.3
 41
0.8
 72
     2
 11
66.0001222266
 21
261.8232399979
 31
0.0
  0
LINE
  5
FB
  8
0
  6
CONTINUOUS
 62
     2
 10
75.165002511
 20
265.2900687349
 30
0.0
 11
72.0001222266
 21
261.3232399979
 31
0.0
  0
LINE
  5
FC
  8
0
  6
CONTINUOUS
 62
     2
 10
72.0001222266
 20
261.3232399979
 30
0.0
 11
67.0001222266
 21
261.3232399979
 31
0.0
  0
LINE
  5
FD
  8
0
  6
CONTINUOUS
 62
     2
 10
67.0001222266
 20
261.3232399979
 30
0.0
 11
57.5334555599
 21
261.3232399979
 31
0.0
  0
INSERT
  5
FE
  8
0
  6
CONTINUOUS
 62
     2
  2
_OPEN
 10
75.165002511
 20
265.2900687349
 30
0.0
 41
3.0
 42
3.0
 43
3.0
 50
51.4158607258
  0
ENDBLK
  5
FF
  8
0
  6
BYBLOCK
 62
     0
  0
BLOCK
  8
0
  2
*D20
 70
     1
 10
0.0
 20
0.0
 30
0.0
  3
*D20
  1

  0
TEXT
  5
102
  8
0
  6
CONTINUOUS
 62
     2
 10
42.50017233766666
 20
143.8805057678
 30
0.0
 40
2.0
  1
n
  7
TEXTSTYLE_1
 72
     2
 11
44.646005671
 21
143.8805057678
 31
0.0
  0
TEXT
  5
103
  8
0
  6
CONTINUOUS
 62
     2
 10
46.246005671
 20
143.8805057678
 30
0.0
 40
2.0
  1
4.5
 41
0.8
 72
     2
 11
49.446005671
 21
143.8805057678
 31
0.0
  0
LINE
  5
104
  8
0
  6
CONTINUOUS
 62
     2
 10
56.9705927372
 20
137.1561080923
 30
0.0
 11
55.446005671
 21
143.3805057678
 31
0.0
  0
LINE
  5
105
  8
0
  6
CONTINUOUS
 62
     2
 10
55.446005671
 20
143.3805057678
 30
0.0
 11
50.446005671
 21
143.3805057678
 31
0.0
  0
LINE
  5
106
  8
0
  6
CONTINUOUS
 62
     2
 10
50.446005671
 20
143.3805057678
 30
0.0
 11
40.9793390043
 21
143.3805057678
 31
0.0
  0
INSERT
  5
107
  8
0
  6
CONTINUOUS
 62
     2
  2
_OPEN
 10
56.9705927372
 20
137.1561080923
 30
0.0
 41
3.0
 42
3.0
 43
3.0
 50
283.7629107957
  0
ENDBLK
  5
108
  8
0
  6
BYBLOCK
 62
     0
  0
BLOCK
  8
0
  2
*D21
 70
     1
 10
0.0
 20
0.0
 30
0.0
  3
*D21
  1

  0
TEXT
  5
10B
  8
0
  6
CONTINUOUS
 62
     2
 10
80.06943618956667
 20
88.235241517
 30
0.0
 40
2.0
  1
n
  7
TEXTSTYLE_1
 72
     2
 11
82.2152695229
 21
88.235241517
 31
0.0
  0
TEXT
  5
10C
  8
0
  6
CONTINUOUS
 62
     2
 10
83.8152695229
 20
88.235241517
 30
0.0
 40
2.0
  1
4.3
 41
0.8
 72
     2
 11
87.0152695229
 21
88.235241517
 31
0.0
  0
LINE
  5
10D
  8
0
  6
CONTINUOUS
 62
     2
 10
95.710376444
 20
80.9681264682
 30
0.0
 11
93.0152695229
 21
87.735241517
 31
0.0
  0
LINE
  5
10E
  8
0
  6
CONTINUOUS
 62
     2
 10
93.0152695229
 20
87.735241517
 30
0.0
 11
88.0152695229
 21
87.735241517
 31
0.0
  0
LINE
  5
10F
  8
0
  6
CONTINUOUS
 62
     2
 10
88.0152695229
 20
87.735241517
 30
0.0
 11
78.5486028562
 21
87.735241517
 31
0.0
  0
INSERT
  5
110
  8
0
  6
CONTINUOUS
 62
     2
  2
_OPEN
 10
95.710376444
 20
80.9681264682
 30
0.0
 41
3.0
 42
3.0
 43
3.0
 50
291.7156750358
  0
ENDBLK
  5
111
  8
0
  6
BYBLOCK
 62
     0
  0
BLOCK
  8
0
  2
*D22
 70
     1
 10
0.0
 20
0.0
 30
0.0
  3
*D22
  1

  0
TEXT
  5
114
  8
0
  6
CONTINUOUS
 62
     2
 10
111.1210447905
 20
95.4201155545
 30
0.0
 40
2.0
  1
R
 50
16.0372423464
 41
0.8
  0
TEXT
  5
115
  8
0
  6
CONTINUOUS
 62
     2
 10
112.6587765155
 20
95.8621349451
 30
0.0
 40
2.0
  1
20
 50
16.0372423464
 41
0.8
  0
LINE
  5
116
  8
0
  6
CONTINUOUS
 62
     2
 10
104.7275250208
 20
93.062058129
 30
0.0
 11
115.8723710252
 21
96.2656325623
 31
0.0
  0
INSERT
  5
117
  8
0
  6
CONTINUOUS
 62
     2
  2
_OPEN
 10
104.7275250208
 20
93.062058129
 30
0.0
 41
3.0
 42
3.0
 43
3.0
 50
196.0372423464
  0
ENDBLK
  5
118
  8
0
  6
BYBLOCK
 62
     0
  0
BLOCK
  8
0
  2
*D23
 70
     1
 10
0.0
 20
0.0
 30
0.0
  3
*D23
  1

  0
TEXT
  5
11B
  8
0
  6
CONTINUOUS
 62
     2
 10
92.2211192064145
 20
137.4289407056171
 30
0.0
 40
2.0
  1
R
 50
10.1306919972
 41
0.8
 72
     1
 11
92.7461373925
 21
137.5227508795
 31
0.0
  0
TEXT
  5
11C
  8
0
  6
CONTINUOUS
 62
     2
 10
93.92742831120763
 20
137.7338237706635
 30
0.0
 40
2.0
  1
20
 50
10.1306919972
 41
0.8
 72
     1
 11
95.1087192299
 21
137.9448966619
 31
0.0
  0
LINE
  5
11D
  8
0
  6
CONTINUOUS
 62
     2
 10
85.8176964791
 20
135.7768591413
 30
0.0
 11
96.7717208261
 21
137.7341226341
 31
0.0
  0
INSERT
  5
11E
  8
0
  6
CONTINUOUS
 62
     2
  2
_OPEN
 10
85.8176964791
 20
135.7768591413
 30
0.0
 41
3.0
 42
3.0
 43
3.0
 50
190.1306919972
  0
ENDBLK
  5
11F
  8
0
  6
BYBLOCK
 62
     0
  0
BLOCK
  8
0
  2
*D24
 70
     1
 10
0.0
 20
0.0
 30
0.0
  3
*D24
  1

  0
TEXT
  5
122
  8
0
  6
CONTINUOUS
 62
     2
 10
95.70125914559999
 20
205.4907166462
 30
0.0
 40
2.0
  1
20
 41
0.8
 72
     1
 11
96.9012591456
 21
205.4907166462
 31
0.0
  0
LINE
  5
123
  8
0
  6
CONTINUOUS
 62
     2
 10
105.5058784573
 20
256.9046022517
 30
0.0
 11
105.5058784573
 21
201.9907166462
 31
0.0
  0
LINE
  5
124
  8
0
  6
CONTINUOUS
 62
     2
 10
105.5058784573
 20
204.9907166462
 30
0.0
 11
95.5058784573
 21
204.9907166462
 31
0.0
  0
LINE
  5
125
  8
0
  6
CONTINUOUS
 62
     2
 10
85.5058784573
 20
204.9907166462
 30
0.0
 11
95.5058784573
 21
204.9907166462
 31
0.0
  0
INSERT
  5
126
  8
0
  6
CONTINUOUS
 62
     2
  2
_OPEN
 10
105.5058784573
 20
204.9907166462
 30
0.0
 41
3.0
 42
3.0
 43
3.0
  0
INSERT
  5
127
  8
0
  6
CONTINUOUS
 62
     2
  2
_OPEN
 10
85.5058784573
 20
204.9907166462
 30
0.0
 41
3.0
 42
3.0
 43
3.0
 50
180.0
  0
ENDBLK
  5
128
  8
0
  6
BYBLOCK
 62
     0
  0
BLOCK
  8
0
  2
*D25
 70
     1
 10
0.0
 20
0.0
 30
0.0
  3
*D25
  1

  0
TEXT
  5
12B
  8
0
  6
CONTINUOUS
 62
     2
 10
139.4041079652
 20
66.3002162331
 30
0.0
 40
2.0
  1
4
 41
0.8
  0
LINE
  5
12C
  8
0
  6
CONTINUOUS
 62
     2
 10
134.6770390197
 20
70.4707089988
 30
0.0
 11
134.6770390197
 21
62.8002162331
 31
0.0
  0
LINE
  5
12D
  8
0
  6
CONTINUOUS
 62
     2
 10
130.6770390197
 20
70.4707089988
 30
0.0
 11
130.6770390197
 21
62.8002162331
 31
0.0
  0
LINE
  5
12E
  8
0
  6
CONTINUOUS
 62
     2
 10
134.6770390197
 20
65.8002162331
 30
0.0
 11
141.0041079652
 21
65.8002162331
 31
0.0
  0
LINE
  5
12F
  8
0
  6
CONTINUOUS
 62
     2
 10
141.0041079652
 20
65.8002162331
 30
0.0
 11
132.6770390197
 21
65.8002162331
 31
0.0
  0
LINE
  5
130
  8
0
  6
CONTINUOUS
 62
     2
 10
130.6770390197
 20
65.8002162331
 30
0.0
 11
126.6770390197
 21
65.8002162331
 31
0.0
  0
LINE
  5
131
  8
0
  6
CONTINUOUS
 62
     2
 10
126.6770390197
 20
65.8002162331
 30
0.0
 11
132.6770390197
 21
65.8002162331
 31
0.0
  0
INSERT
  5
132
  8
0
  6
CONTINUOUS
 62
     2
  2
_OPEN
 10
134.6770390197
 20
65.8002162331
 30
0.0
 41
3.0
 42
3.0
 43
3.0
 50
180.0
  0
INSERT
  5
133
  8
0
  6
CONTINUOUS
 62
     2
  2
_OPEN
 10
130.6770390197
 20
65.8002162331
 30
0.0
 41
3.0
 42
3.0
 43
3.0
  0
ENDBLK
  5
134
  8
0
  6
BYBLOCK
 62
     0
  0
ENDSEC
  0
SECTION
  2
ENTITIES
  0
TEXT
  5
135
  8
0
  6
CONTINUOUS
 62
     2
 10
188.1
 20
7.5
 30
0.0
 40
1.5
  1
M00003 00
 41
0.6
  7
TEXTSTYLE_2
 72
     2
 11
195.0
 21
7.5
 31
0.0
  0
INSERT
  5
136
  8
0
  6
CONTINUOUS
 62
     2
  2
MARGEA4_BL0
 10
105.0000445
 20
148.5
 30
0.0
  0
INSERT
  5
137
  8
0
  6
CONTINUOUS
 62
     2
  2
REPERE_ORIENTATION_BL1
 10
105.0112637584
 20
6.8841139578
 30
0.0
  0
DIMENSION
  5
14E
  8
0
  6
CONTINUOUS
 62
     2
  2
*D25
 10
130.6770390197
 20
65.8002162331
 30
0.0
 11
140.2541083984
 21
65.8002162331
 31
0.0
 70
   160
  3
STANDARD
 13
134.6770390197
 23
71.9707089988
 33
0.0
 14
130.6770390197
 24
71.9707089988
 34
0.0
 50
180.0
  0
LINE
  5
14F
  8
0
  6
CONTINUOUS
 62
     2
 10
15.0508884768
 20
61.931994702
 30
0.0
 11
195.0308884768
 21
61.931994702
 31
0.0
  0
LINE
  5
150
  8
0
  6
CONTINUOUS
 62
     2
 10
15.0508884768
 20
61.931994702
 30
0.0
 11
15.0508884768
 21
9.931994702
 31
0.0
  0
LINE
  5
151
  8
0
  6
CONTINUOUS
 62
     2
 10
15.0508884768
 20
51.931994702
 30
0.0
 11
195.0308884768
 21
51.931994702
 31
0.0
  0
LINE
  5
152
  8
0
  6
CONTINUOUS
 62
     2
 10
85.0508884768
 20
39.931994702
 30
0.0
 11
195.0308884768
 21
39.931994702
 31
0.0
  0
LINE
  5
153
  8
0
  6
CONTINUOUS
 62
     2
 10
15.0508884768
 20
19.931994702
 30
0.0
 11
195.0308884768
 21
19.931994702
 31
0.0
  0
LINE
  5
154
  8
0
  6
CONTINUOUS
 62
     2
 10
15.0508884768
 20
9.931994702
 30
0.0
 11
195.0308884768
 21
9.931994702
 31
0.0
  0
LINE
  5
155
  8
0
  6
CONTINUOUS
 62
     2
 10
50.0508884768
 20
61.931994702
 30
0.0
 11
50.0508884768
 21
51.931994702
 31
0.0
  0
LINE
  5
156
  8
0
  6
CONTINUOUS
 62
     2
 10
85.0508884768
 20
61.931994702
 30
0.0
 11
85.0508884768
 21
19.931994702
 31
0.0
  0
LINE
  5
157
  8
0
  6
CONTINUOUS
 62
     2
 10
109.0508884768
 20
61.931994702
 30
0.0
 11
109.0508884768
 21
39.931994702
 31
0.0
  0
LINE
  5
158
  8
0
  6
CONTINUOUS
 62
     2
 10
134.0508884768
 20
61.931994702
 30
0.0
 11
134.0508884768
 21
39.931994702
 31
0.0
  0
LINE
  5
159
  8
0
  6
CONTINUOUS
 62
     2
 10
153.7308884768
 20
61.931994702
 30
0.0
 11
153.7308884768
 21
39.931994702
 31
0.0
  0
LINE
  5
15A
  8
0
  6
CONTINUOUS
 62
     2
 10
195.0308884768
 20
61.931994702
 30
0.0
 11
195.0308884768
 21
9.931994702
 31
0.0
  0
TEXT
  5
15B
  8
0
  6
CONTINUOUS
 62
     2
 10
24.92626050060952
 20
57.556994702
 30
0.0
 40
2.5
  1
Designer
  7
TEXTSTYLE_4
 72
     1
 11
32.5508884768
 21
57.556994702
 31
0.0
  0
TEXT
  5
15C
  8
0
  6
CONTINUOUS
 62
     2
 10
31.41993609584762
 20
53.806994702
 30
0.0
 40
2.5
  1
 
  7
TEXTSTYLE_4
 72
     1
 11
32.5508884768
 21
53.806994702
 31
0.0
  0
TEXT
  5
15D
  8
0
  6
CONTINUOUS
 62
     2
 10
54.81093311965714
 20
57.556994702
 30
0.0
 40
2.5
  1
Creation date
  7
TEXTSTYLE_5
 72
     1
 11
67.5508884768
 21
57.556994702
 31
0.0
  0
TEXT
  5
15E
  8
0
  6
CONTINUOUS
 62
     2
 10
57.37789740537143
 20
53.806994702
 30
0.0
 40
2.5
  1
Oct-01-19
  7
TEXTSTYLE_5
 72
     1
 11
67.5508884768
 21
53.806994702
 31
0.0
  0
TEXT
  5
15F
  8
0
  6
CONTINUOUS
 62
     2
 10
92.46569502441905
 20
57.556994702
 30
0.0
 40
2.5
  1
Scale
  7
TEXTSTYLE_5
 72
     1
 11
97.0508884768
 21
57.556994702
 31
0.0
  0
TEXT
  5
160
  8
0
  6
CONTINUOUS
 62
     2
 10
92.28898371489524
 20
53.806994702
 30
0.0
 40
2.5
  1
1.000
  7
TEXTSTYLE_5
 72
     1
 11
97.0508884768
 21
53.806994702
 31
0.0
  0
TEXT
  5
161
  8
0
  6
CONTINUOUS
 62
     2
 10
115.1762605006095
 20
57.556994702
 30
0.0
 40
2.5
  1
Format
  7
TEXTSTYLE_4
 72
     1
 11
121.5508884768
 21
57.556994702
 31
0.0
  0
TEXT
  5
162
  8
0
  6
CONTINUOUS
 62
     2
 10
119.3429271672762
 20
53.806994702
 30
0.0
 40
2.5
  1
A4
  7
TEXTSTYLE_4
 72
     1
 11
121.5508884768
 21
53.806994702
 31
0.0
  0
TEXT
  5
163
  8
0
  6
CONTINUOUS
 62
     2
 10
139.4303230006095
 20
57.556994702
 30
0.0
 40
2.5
  1
Index
  7
TEXTSTYLE_5
 72
     1
 11
143.8908884768
 21
57.556994702
 31
0.0
  0
TEXT
  5
164
  8
0
  6
CONTINUOUS
 62
     2
 10
142.7599360958476
 20
53.806994702
 30
0.0
 40
2.5
  1
 
  7
TEXTSTYLE_5
 72
     1
 11
143.8908884768
 21
53.806994702
 31
0.0
  0
TEXT
  5
165
  8
0
  6
CONTINUOUS
 62
     2
 10
157.8786563339429
 20
57.681994702
 30
0.0
 40
3.0
  1
Gen. Tolerance
  7
TEXTSTYLE_5
 72
     1
 11
174.3808884768
 21
57.681994702
 31
0.0
  0
TEXT
  5
166
  8
0
  6
CONTINUOUS
 62
     2
 10
159.1599063339429
 20
53.181994702
 30
0.0
 40
3.0
  1
ISO 2768-1m
  7
TEXTSTYLE_5
 72
     1
 11
174.3808884768
 21
53.181994702
 31
0.0
  0
TEXT
  5
167
  8
0
  6
CONTINUOUS
 62
     2
 10
91.40251317436667
 20
46.556994702
 30
0.0
 40
2.5
  1
N
  7
TEXTSTYLE_4
 72
     1
 11
92.2358465077
 21
46.556994702
 31
0.0
  0
TEXT
  5
168
  8
0
  6
CONTINUOUS
 62
     2
 10
94.0028603403
 20
46.556994702
 30
0.0
 40
2.5
  1
°
  7
TEXTSTYLE_7
 72
     1
 11
94.2372353403
 21
46.556994702
 31
0.0
  0
TEXT
  5
169
  8
0
  6
CONTINUOUS
 62
     2
 10
93.04037254749524
 20
46.556994702
 30
0.0
 40
2.5
  1
 Outil
  7
TEXTSTYLE_4
 72
     1
 11
99.0522773094
 21
46.556994702
 31
0.0
  0
TEXT
  5
16A
  8
0
  6
CONTINUOUS
 62
     2
 10
95.91993609584762
 20
42.806994702
 30
0.0
 40
2.5
  1
 
  7
TEXTSTYLE_4
 72
     1
 11
97.0508884768
 21
42.806994702
 31
0.0
  0
TEXT
  5
16B
  8
0
  6
CONTINUOUS
 62
     2
 10
116.3176423256667
 20
46.556994702
 30
0.0
 40
2.5
  1
N
  7
TEXTSTYLE_5
 72
     1
 11
117.150975659
 21
46.556994702
 31
0.0
  0
TEXT
  5
16C
  8
0
  6
CONTINUOUS
 62
     2
 10
118.9179894916
 20
46.556994702
 30
0.0
 40
2.5
  1
°
  7
TEXTSTYLE_8
 72
     1
 11
119.1523644916
 21
46.556994702
 31
0.0
  0
TEXT
  5
16D
  8
0
  6
CONTINUOUS
 62
     2
 10
117.7821880236857
 20
46.556994702
 30
0.0
 40
2.5
  1
 Plan
  7
TEXTSTYLE_5
 72
     1
 11
123.5522773094
 21
46.556994702
 31
0.0
  0
TEXT
  5
16E
  8
0
  6
CONTINUOUS
 62
     2
 10
120.7394166902333
 20
42.806994702
 30
0.0
 40
2.5
  1
1
  7
TEXTSTYLE_5
 72
     1
 11
121.0388958569
 21
42.806994702
 31
0.0
  0
TEXT
  5
16F
  8
0
  6
CONTINUOUS
 62
     2
 10
121.4116335128476
 20
42.806994702
 30
0.0
 40
2.5
  1
 
  7
TEXTSTYLE_5
 72
     1
 11
122.5425858938
 21
42.806994702
 31
0.0
  0
TEXT
  5
170
  8
0
  6
CONTINUOUS
 62
     2
 10
137.0456503815619
 20
46.556994702
 30
0.0
 40
2.5
  1
Material
  7
TEXTSTYLE_5
 72
     1
 11
143.8908884768
 21
46.556994702
 31
0.0
  0
TEXT
  5
171
  8
0
  6
CONTINUOUS
 62
     2
 10
142.7599360958476
 20
42.806994702
 30
0.0
 40
2.5
  1
 
  7
TEXTSTYLE_5
 72
     1
 11
143.8908884768
 21
42.806994702
 31
0.0
  0
TEXT
  5
172
  8
0
  6
CONTINUOUS
 62
     2
 10
154.4385521672762
 20
48.431994702
 30
0.0
 40
2.5
  1
Treatment / Coating
  7
TEXTSTYLE_5
 72
     1
 11
174.3808884768
 21
48.431994702
 31
0.0
  0
TEXT
  5
173
  8
0
  6
CONTINUOUS
 62
     2
 10
171.7023170482286
 20
44.681994702
 30
0.0
 40
2.5
  1
- 
  7
TEXTSTYLE_5
 72
     1
 11
174.3808884768
 21
44.681994702
 31
0.0
  0
TEXT
  5
174
  8
0
  6
CONTINUOUS
 62
     2
 10
170.5713646672762
 20
40.931994702
 30
0.0
 40
2.5
  1
-  
  7
TEXTSTYLE_5
 72
     1
 11
174.3808884768
 21
40.931994702
 31
0.0
  0
TEXT
  5
175
  8
0
  6
CONTINUOUS
 62
     2
 10
86.3308884768
 20
35.131994702
 30
0.0
 40
3.2
  1
Model name:
  7
TEXTSTYLE_5
  0
TEXT
  5
176
  8
0
  6
CONTINUOUS
 62
     2
 10
114.5684182387048
 20
22.431994702
 30
0.0
 40
5.0
  1
T100-0011-A
  7
TEXTSTYLE_9
 72
     1
 11
140.0408884768
 21
22.431994702
 31
0.0
  0
LINE
  5
177
  8
0
  6
CONTINUOUS
 62
     7
 10
10.0
 20
297.0
 30
0.0
 11
0.0
 21
287.0
 31
0.0
  0
LINE
  5
178
  8
0
  6
CONTINUOUS
 62
     7
 10
10.0
 20
0.0
 30
0.0
 11
0.0
 21
10.0
 31
0.0
  0
LINE
  5
179
  8
0
  6
CONTINUOUS
 62
     7
 10
0.0
 20
0.0
 30
0.0
 11
10.0
 21
0.0
 31
0.0
  0
LINE
  5
17A
  8
0
  6
CONTINUOUS
 62
     7
 10
200.0
 20
0.0
 30
0.0
 11
210.0
 21
0.0
 31
0.0
  0
LINE
  5
17B
  8
0
  6
CONTINUOUS
 62
     7
 10
0.0
 20
10.0
 30
0.0
 11
0.0
 21
0.0
 31
0.0
  0
LINE
  5
17C
  8
0
  6
CONTINUOUS
 62
     7
 10
0.0
 20
287.0
 30
0.0
 11
0.0
 21
297.0
 31
0.0
  0
LINE
  5
17D
  8
0
  6
CONTINUOUS
 62
     7
 10
210.0
 20
0.0
 30
0.0
 11
210.0
 21
10.0
 31
0.0
  0
LINE
  5
17E
  8
0
  6
CONTINUOUS
 62
     7
 10
210.0
 20
287.0
 30
0.0
 11
210.0
 21
297.0
 31
0.0
  0
LINE
  5
17F
  8
0
  6
CONTINUOUS
 62
     7
 10
210.0
 20
297.0
 30
0.0
 11
200.0
 21
297.0
 31
0.0
  0
LINE
  5
180
  8
0
  6
CONTINUOUS
 62
     7
 10
0.0
 20
297.0
 30
0.0
 11
10.0
 21
297.0
 31
0.0
  0
LINE
  5
181
  8
0
  6
CONTINUOUS
 62
     7
 10
210.0
 20
10.0
 30
0.0
 11
200.0
 21
0.0
 31
0.0
  0
LINE
  5
182
  8
0
  6
CONTINUOUS
 62
     7
 10
200.0
 20
297.0
 30
0.0
 11
210.0
 21
287.0
 31
0.0
  0
LINE
  5
183
  8
0
  6
CONTINUOUS
 62
     7
 10
105.5058784573
 20
71.9707089988
 30
0.0
 11
53.5058784573
 21
71.9707089988
 31
0.0
  0
LINE
  5
184
  8
1_AXES
  6
CONTINUOUS
 62
     7
 10
53.5058784573
 20
71.9707089988
 30
0.0
 11
53.5058784573
 21
273.9707089988
 31
0.0
  0
LINE
  5
185
  8
0
  6
CONTINUOUS
 62
     7
 10
103.6320341981
 20
249.9522370169
 30
0.0
 11
87.3797227166
 21
215.0990425706
 31
0.0
  0
LINE
  5
186
  8
0
  6
CONTINUOUS
 62
     7
 10
87.3797227166
 20
130.8423754271
 30
0.0
 11
103.6320341981
 21
95.9891809808
 31
0.0
  0
LINE
  5
187
  8
0
  6
CONTINUOUS
 62
     7
 10
85.5058784573
 20
206.6466773358
 30
0.0
 11
85.5058784573
 21
139.2947406619
 31
0.0
  0
LINE
  5
188
  8
0
  6
CONTINUOUS
 62
     7
 10
105.5058784573
 20
273.9707089988
 30
0.0
 11
105.5058784573
 21
258.4046022517
 31
0.0
  0
LINE
  5
189
  8
0
  6
CONTINUOUS
 62
     7
 10
105.5058784573
 20
87.536815746
 30
0.0
 11
105.5058784573
 21
71.9707089988
 31
0.0
  0
LINE
  5
18A
  8
0
  6
CONTINUOUS
 62
     7
 10
53.5058784573
 20
273.9707089988
 30
0.0
 11
105.5058784573
 21
273.9707089988
 31
0.0
  0
LINE
  5
18B
  8
0
  6
CONTINUOUS
 62
     7
 10
134.6770390197
 20
71.9707089988
 30
0.0
 11
130.6770390197
 21
71.9707089988
 31
0.0
  0
LINE
  5
18C
  8
1_AXES
  6
HIDDEN
 62
     8
 10
130.6770390197
 20
76.8207089988
 30
0.0
 11
132.3470390197
 21
76.8207089988
 31
0.0
  0
LINE
  5
18D
  8
1_AXES
  6
HIDDEN
 62
     8
 10
130.6770390197
 20
81.1207089988
 30
0.0
 11
132.3470390197
 21
81.1207089988
 31
0.0
  0
LINE
  5
18E
  8
DEFAULT_2
  6
HIDDEN
 62
     8
 10
130.6770390197
 20
87.536815746
 30
0.0
 11
134.6770390197
 21
87.536815746
 31
0.0
  0
LINE
  5
18F
  8
1_AXES
  6
HIDDEN
 62
     8
 10
130.6770390197
 20
94.7207089988
 30
0.0
 11
132.4470390197
 21
94.7207089988
 31
0.0
  0
LINE
  5
190
  8
DEFAULT_2
  6
HIDDEN
 62
     8
 10
130.6770390197
 20
95.9891809808
 30
0.0
 11
134.6770390197
 21
95.9891809808
 31
0.0
  0
LINE
  5
191
  8
1_AXES
  6
HIDDEN
 62
     8
 10
130.6770390197
 20
99.2207089988
 30
0.0
 11
132.4470390197
 21
99.2207089988
 31
0.0
  0
LINE
  5
192
  8
1_AXES
  6
HIDDEN
 62
     8
 10
132.3470390197
 20
269.1207089988
 30
0.0
 11
134.6770390197
 21
271.4507089988
 31
0.0
  0
LINE
  5
193
  8
1_AXES
  6
HIDDEN
 62
     8
 10
132.3470390197
 20
76.8207089988
 30
0.0
 11
134.6770390197
 21
74.4907089988
 31
0.0
  0
LINE
  5
194
  8
1_AXES
  6
HIDDEN
 62
     8
 10
132.4470390197
 20
251.2207089988
 30
0.0
 11
134.6770390197
 21
253.4507089988
 31
0.0
  0
LINE
  5
195
  8
1_AXES
  6
HIDDEN
 62
     8
 10
132.4470390197
 20
94.7207089988
 30
0.0
 11
134.6770390197
 21
92.4907089988
 31
0.0
  0
LINE
  5
196
  8
DEFAULT_2
  6
HIDDEN
 62
     8
 10
134.6770390197
 20
130.8423754271
 30
0.0
 11
130.6770390197
 21
130.8423754271
 31
0.0
  0
LINE
  5
197
  8
1_AXES
  6
HIDDEN
 62
     8
 10
130.6770390197
 20
132.7207089988
 30
0.0
 11
132.4470390197
 21
132.7207089988
 31
0.0
  0
LINE
  5
198
  8
1_AXES
  6
HIDDEN
 62
     8
 10
130.6770390197
 20
137.2207089988
 30
0.0
 11
132.4470390197
 21
137.2207089988
 31
0.0
  0
LINE
  5
199
  8
DEFAULT_2
  6
HIDDEN
 62
     8
 10
134.6770390197
 20
139.2947406619
 30
0.0
 11
130.6770390197
 21
139.2947406619
 31
0.0
  0
LINE
  5
19A
  8
1_AXES
  6
HIDDEN
 62
     8
 10
132.4470390197
 20
213.2207089988
 30
0.0
 11
134.6770390197
 21
215.4507089988
 31
0.0
  0
LINE
  5
19B
  8
1_AXES
  6
HIDDEN
 62
     8
 10
132.4470390197
 20
132.7207089988
 30
0.0
 11
134.6770390197
 21
130.4907089988
 31
0.0
  0
POLYLINE
  5
19C
  8
1_AXES
  6
CONTINUOUS
 62
     7
 66
     1
 10
0.0
 20
0.0
 30
0.0
  0
VERTEX
  5
245
  8
1_AXES
  6
CONTINUOUS
 62
     7
 10
134.6770390197
 20
250.9882322329
 30
0.0
  0
VERTEX
  5
246
  8
1_AXES
  6
CONTINUOUS
 62
     7
 10
134.3686463135
 20
250.1548996143
 30
0.0
  0
VERTEX
  5
247
  8
1_AXES
  6
CONTINUOUS
 62
     7
 10
134.216019667
 20
249.36084416
 30
0.0
  0
VERTEX
  5
248
  8
1_AXES
  6
CONTINUOUS
 62
     7
 10
134.2160876106
 20
248.5798745378
 30
0.0
  0
VERTEX
  5
249
  8
1_AXES
  6
CONTINUOUS
 62
     7
 10
134.3686876461
 20
247.7863727872
 30
0.0
  0
VERTEX
  5
24A
  8
1_AXES
  6
CONTINUOUS
 62
     7
 10
134.6770390197
 20
246.9531857648
 30
0.0
  0
SEQEND
  5
263
  8
1_AXES
  6
CONTINUOUS
 62
     7
  0
POLYLINE
  5
1A4
  8
1_AXES
  6
CONTINUOUS
 62
     7
 66
     1
 10
0.0
 20
0.0
 30
0.0
  0
VERTEX
  5
24B
  8
1_AXES
  6
CONTINUOUS
 62
     7
 10
134.6770390197
 20
212.9882322329
 30
0.0
  0
VERTEX
  5
24C
  8
1_AXES
  6
CONTINUOUS
 62
     7
 10
134.3686463135
 20
212.1548996143
 30
0.0
  0
VERTEX
  5
24D
  8
1_AXES
  6
CONTINUOUS
 62
     7
 10
134.216019667
 20
211.36084416
 30
0.0
  0
VERTEX
  5
24E
  8
1_AXES
  6
CONTINUOUS
 62
     7
 10
134.2160876106
 20
210.5798745378
 30
0.0
  0
VERTEX
  5
24F
  8
1_AXES
  6
CONTINUOUS
 62
     7
 10
134.3686876461
 20
209.7863727872
 30
0.0
  0
VERTEX
  5
250
  8
1_AXES
  6
CONTINUOUS
 62
     7
 10
134.6770390197
 20
208.9531857648
 30
0.0
  0
SEQEND
  5
264
  8
1_AXES
  6
CONTINUOUS
 62
     7
  0
LINE
  5
1AC
  8
1_AXES
  6
HIDDEN
 62
     8
 10
130.6770390197
 20
76.8207089988
 30
0.0
 11
130.6770390197
 21
81.1207089988
 31
0.0
  0
LINE
  5
1AD
  8
1_AXES
  6
HIDDEN
 62
     8
 10
130.6770390197
 20
94.7207089988
 30
0.0
 11
130.6770390197
 21
99.2207089988
 31
0.0
  0
LINE
  5
1AE
  8
1_AXES
  6
HIDDEN
 62
     8
 10
130.6770390197
 20
132.7207089988
 30
0.0
 11
130.6770390197
 21
137.2207089988
 31
0.0
  0
LINE
  5
1AF
  8
1_AXES
  6
HIDDEN
 62
     8
 10
130.6770390197
 20
170.7207089988
 30
0.0
 11
130.6770390197
 21
175.2207089988
 31
0.0
  0
LINE
  5
1B0
  8
1_AXES
  6
HIDDEN
 62
     8
 10
130.6770390197
 20
208.7207089988
 30
0.0
 11
130.6770390197
 21
213.2207089988
 31
0.0
  0
LINE
  5
1B1
  8
1_AXES
  6
HIDDEN
 62
     8
 10
130.6770390197
 20
246.7207089988
 30
0.0
 11
130.6770390197
 21
251.2207089988
 31
0.0
  0
LINE
  5
1B2
  8
1_AXES
  6
HIDDEN
 62
     8
 10
130.6770390197
 20
264.8207089988
 30
0.0
 11
130.6770390197
 21
269.1207089988
 31
0.0
  0
LINE
  5
1B3
  8
0
  6
CONTINUOUS
 62
     7
 10
130.6770390197
 20
71.9707089988
 30
0.0
 11
130.6770390197
 21
273.9707089988
 31
0.0
  0
LINE
  5
1B4
  8
1_AXES
  6
HIDDEN
 62
     8
 10
132.3470390197
 20
76.8207089988
 30
0.0
 11
132.3470390197
 21
81.1207089988
 31
0.0
  0
LINE
  5
1B5
  8
1_AXES
  6
HIDDEN
 62
     8
 10
132.3470390197
 20
264.8207089988
 30
0.0
 11
132.3470390197
 21
269.1207089988
 31
0.0
  0
LINE
  5
1B6
  8
1_AXES
  6
HIDDEN
 62
     8
 10
132.4470390197
 20
94.7207089988
 30
0.0
 11
132.4470390197
 21
99.2207089988
 31
0.0
  0
LINE
  5
1B7
  8
1_AXES
  6
HIDDEN
 62
     8
 10
132.4470390197
 20
132.7207089988
 30
0.0
 11
132.4470390197
 21
137.2207089988
 31
0.0
  0
LINE
  5
1B8
  8
1_AXES
  6
HIDDEN
 62
     8
 10
132.4470390197
 20
170.7207089988
 30
0.0
 11
132.4470390197
 21
175.2207089988
 31
0.0
  0
LINE
  5
1B9
  8
1_AXES
  6
HIDDEN
 62
     8
 10
132.4470390197
 20
208.7207089988
 30
0.0
 11
132.4470390197
 21
213.2207089988
 31
0.0
  0
LINE
  5
1BA
  8
1_AXES
  6
HIDDEN
 62
     8
 10
132.4470390197
 20
246.7207089988
 30
0.0
 11
132.4470390197
 21
251.2207089988
 31
0.0
  0
LINE
  5
1BB
  8
1_AXES
  6
HIDDEN
 62
     8
 10
132.4470390197
 20
175.2207089988
 30
0.0
 11
134.6770390197
 21
177.4507089988
 31
0.0
  0
LINE
  5
1BC
  8
1_AXES
  6
HIDDEN
 62
     8
 10
130.6770390197
 20
170.7207089988
 30
0.0
 11
132.4470390197
 21
170.7207089988
 31
0.0
  0
LINE
  5
1BD
  8
1_AXES
  6
HIDDEN
 62
     8
 10
132.4470390197
 20
170.7207089988
 30
0.0
 11
134.6770390197
 21
168.4907089988
 31
0.0
  0
LINE
  5
1BE
  8
1_AXES
  6
CONTINUOUS
 62
     7
 10
134.6770390197
 20
71.9707089988
 30
0.0
 11
134.6770390197
 21
273.9707089988
 31
0.0
  0
POLYLINE
  5
1BF
  8
1_AXES
  6
CONTINUOUS
 62
     7
 66
     1
 10
0.0
 20
0.0
 30
0.0
  0
VERTEX
  5
251
  8
1_AXES
  6
CONTINUOUS
 62
     7
 10
134.6770390197
 20
174.9882322329
 30
0.0
  0
VERTEX
  5
252
  8
1_AXES
  6
CONTINUOUS
 62
     7
 10
134.368645151
 20
174.154895519
 30
0.0
  0
VERTEX
  5
253
  8
1_AXES
  6
CONTINUOUS
 62
     7
 10
134.2160195109
 20
173.3608425511
 30
0.0
  0
VERTEX
  5
254
  8
1_AXES
  6
CONTINUOUS
 62
     7
 10
134.2160875269
 20
172.5798753981
 30
0.0
  0
VERTEX
  5
255
  8
1_AXES
  6
CONTINUOUS
 62
     7
 10
134.3686866537
 20
171.7863762825
 30
0.0
  0
VERTEX
  5
256
  8
1_AXES
  6
CONTINUOUS
 62
     7
 10
134.6770390197
 20
170.9531857648
 30
0.0
  0
SEQEND
  5
265
  8
1_AXES
  6
CONTINUOUS
 62
     7
  0
LINE
  5
1C7
  8
1_AXES
  6
HIDDEN
 62
     8
 10
130.6770390197
 20
175.2207089988
 30
0.0
 11
132.4470390197
 21
175.2207089988
 31
0.0
  0
POLYLINE
  5
1C8
  8
1_AXES
  6
CONTINUOUS
 62
     7
 66
     1
 10
0.0
 20
0.0
 30
0.0
  0
VERTEX
  5
257
  8
1_AXES
  6
CONTINUOUS
 62
     7
 10
134.6770390197
 20
136.9882322329
 30
0.0
  0
VERTEX
  5
258
  8
1_AXES
  6
CONTINUOUS
 62
     7
 10
134.3686463135
 20
136.1548996143
 30
0.0
  0
VERTEX
  5
259
  8
1_AXES
  6
CONTINUOUS
 62
     7
 10
134.216019667
 20
135.36084416
 30
0.0
  0
VERTEX
  5
25A
  8
1_AXES
  6
CONTINUOUS
 62
     7
 10
134.2160876106
 20
134.5798745378
 30
0.0
  0
VERTEX
  5
25B
  8
1_AXES
  6
CONTINUOUS
 62
     7
 10
134.3686876461
 20
133.7863727872
 30
0.0
  0
VERTEX
  5
25C
  8
1_AXES
  6
CONTINUOUS
 62
     7
 10
134.6770390197
 20
132.9531857648
 30
0.0
  0
SEQEND
  5
266
  8
1_AXES
  6
CONTINUOUS
 62
     7
  0
POLYLINE
  5
1D0
  8
1_AXES
  6
CONTINUOUS
 62
     7
 66
     1
 10
0.0
 20
0.0
 30
0.0
  0
VERTEX
  5
25D
  8
1_AXES
  6
CONTINUOUS
 62
     7
 10
134.6770390197
 20
98.9882322329
 30
0.0
  0
VERTEX
  5
25E
  8
1_AXES
  6
CONTINUOUS
 62
     7
 10
134.3686463135
 20
98.1548996143
 30
0.0
  0
VERTEX
  5
25F
  8
1_AXES
  6
CONTINUOUS
 62
     7
 10
134.216019667
 20
97.36084416
 30
0.0
  0
VERTEX
  5
260
  8
1_AXES
  6
CONTINUOUS
 62
     7
 10
134.2160876106
 20
96.5798745378
 30
0.0
  0
VERTEX
  5
261
  8
1_AXES
  6
CONTINUOUS
 62
     7
 10
134.3686876461
 20
95.7863727872
 30
0.0
  0
VERTEX
  5
262
  8
1_AXES
  6
CONTINUOUS
 62
     7
 10
134.6770390197
 20
94.9531857648
 30
0.0
  0
SEQEND
  5
267
  8
1_AXES
  6
CONTINUOUS
 62
     7
  0
LINE
  5
1D8
  8
1_AXES
  6
HIDDEN
 62
     8
 10
132.4470390197
 20
137.2207089988
 30
0.0
 11
134.6770390197
 21
139.4507089988
 31
0.0
  0
LINE
  5
1D9
  8
1_AXES
  6
HIDDEN
 62
     8
 10
132.4470390197
 20
208.7207089988
 30
0.0
 11
134.6770390197
 21
206.4907089988
 31
0.0
  0
LINE
  5
1DA
  8
DEFAULT_2
  6
HIDDEN
 62
     8
 10
134.6770390197
 20
206.6466773358
 30
0.0
 11
130.6770390197
 21
206.6466773358
 31
0.0
  0
LINE
  5
1DB
  8
1_AXES
  6
HIDDEN
 62
     8
 10
130.6770390197
 20
208.7207089988
 30
0.0
 11
132.4470390197
 21
208.7207089988
 31
0.0
  0
LINE
  5
1DC
  8
1_AXES
  6
HIDDEN
 62
     8
 10
130.6770390197
 20
213.2207089988
 30
0.0
 11
132.4470390197
 21
213.2207089988
 31
0.0
  0
LINE
  5
1DD
  8
DEFAULT_2
  6
HIDDEN
 62
     8
 10
134.6770390197
 20
215.0990425706
 30
0.0
 11
130.6770390197
 21
215.0990425706
 31
0.0
  0
LINE
  5
1DE
  8
1_AXES
  6
HIDDEN
 62
     8
 10
132.4470390197
 20
99.2207089988
 30
0.0
 11
134.6770390197
 21
101.4507089988
 31
0.0
  0
LINE
  5
1DF
  8
1_AXES
  6
HIDDEN
 62
     8
 10
132.4470390197
 20
246.7207089988
 30
0.0
 11
134.6770390197
 21
244.4907089988
 31
0.0
  0
LINE
  5
1E0
  8
1_AXES
  6
HIDDEN
 62
     8
 10
132.3470390197
 20
81.1207089988
 30
0.0
 11
134.6770390197
 21
83.4507089988
 31
0.0
  0
LINE
  5
1E1
  8
1_AXES
  6
HIDDEN
 62
     8
 10
132.3470390197
 20
264.8207089988
 30
0.0
 11
134.6770390197
 21
262.4907089988
 31
0.0
  0
LINE
  5
1E2
  8
1_AXES
  6
HIDDEN
 62
     8
 10
130.6770390197
 20
246.7207089988
 30
0.0
 11
132.4470390197
 21
246.7207089988
 31
0.0
  0
LINE
  5
1E3
  8
DEFAULT_2
  6
HIDDEN
 62
     8
 10
134.6770390197
 20
249.9522370169
 30
0.0
 11
130.6770390197
 21
249.9522370169
 31
0.0
  0
LINE
  5
1E4
  8
1_AXES
  6
HIDDEN
 62
     8
 10
130.6770390197
 20
251.2207089988
 30
0.0
 11
132.4470390197
 21
251.2207089988
 31
0.0
  0
LINE
  5
1E5
  8
DEFAULT_2
  6
HIDDEN
 62
     8
 10
134.6770390197
 20
258.4046022517
 30
0.0
 11
130.6770390197
 21
258.4046022517
 31
0.0
  0
LINE
  5
1E6
  8
1_AXES
  6
HIDDEN
 62
     8
 10
130.6770390197
 20
264.8207089988
 30
0.0
 11
132.3470390197
 21
264.8207089988
 31
0.0
  0
LINE
  5
1E7
  8
1_AXES
  6
HIDDEN
 62
     8
 10
130.6770390197
 20
269.1207089988
 30
0.0
 11
132.3470390197
 21
269.1207089988
 31
0.0
  0
LINE
  5
1E8
  8
0
  6
CONTINUOUS
 62
     7
 10
134.6770390197
 20
273.9707089988
 30
0.0
 11
130.6770390197
 21
273.9707089988
 31
0.0
  0
CIRCLE
  5
1EC
  8
1_AXES
  6
CONTINUOUS
 62
     7
 10
57.5058784573
 20
96.9707089988
 30
0.0
 40
2.25
  0
CIRCLE
  5
1ED
  8
1_AXES
  6
CONTINUOUS
 62
     7
 10
57.5058784573
 20
134.9707089988
 30
0.0
 40
2.25
  0
CIRCLE
  5
1EE
  8
1_AXES
  6
CONTINUOUS
 62
     7
 10
76.5058784573
 20
78.9707089988
 30
0.0
 40
2.15
  0
CIRCLE
  5
1F3
  8
1_AXES
  6
CONTINUOUS
 62
     7
 10
57.5058784573
 20
248.9707089988
 30
0.0
 40
2.25
  0
CIRCLE
  5
1F4
  8
1_AXES
  6
CONTINUOUS
 62
     7
 10
57.5058784573
 20
210.9707089988
 30
0.0
 40
2.25
  0
CIRCLE
  5
1F5
  8
1_AXES
  6
CONTINUOUS
 62
     7
 10
57.5058784573
 20
172.9707089988
 30
0.0
 40
2.25
  0
CIRCLE
  5
1F6
  8
1_AXES
  6
CONTINUOUS
 62
     7
 10
76.5058784573
 20
266.9707089988
 30
0.0
 40
2.15
  0
ARC
  5
1F7
  8
0
  6
CONTINUOUS
 62
     7
 10
85.5058784573
 20
87.536815746
 30
0.0
 40
20.0
 50
0.0
 51
25.0
  0
ARC
  5
1F8
  8
0
  6
CONTINUOUS
 62
     7
 10
105.5058784573
 20
139.2947406619
 30
0.0
 40
20.0
 50
180.0
 51
205.0
  0
CIRCLE
  5
1FA
  8
1_AXES
  6
CONTINUOUS
 62
     7
 10
96.5058784573
 20
78.9707089988
 30
0.0
 40
2.15
  0
ARC
  5
1FC
  8
0
  6
CONTINUOUS
 62
     7
 10
85.5058784573
 20
258.4046022517
 30
0.0
 40
20.0
 50
334.9999999999999
 51
0.0
  0
ARC
  5
1FD
  8
0
  6
CONTINUOUS
 62
     7
 10
105.5058784573
 20
206.6466773358
 30
0.0
 40
20.0
 50
155.0
 51
180.0
  0
CIRCLE
  5
1FF
  8
1_AXES
  6
CONTINUOUS
 62
     7
 10
96.5058784573
 20
266.9707089988
 30
0.0
 40
2.15
  0
ENDSEC
  0
EOF
