999
DXF file: 250x250x25.dxf
999
Pro/ENGINEER 2018420 by Parametric Technology Corporation
  0
SECTION
  2
HEADER
  9
$EXTMAX
 10
420.0
 20
297.0
 30
0.0
  9
$EXTMIN
 10
0.0
 20
0.0
 30
0.0
  9
$LIMMIN
 10
0.0
 20
0.0
  9
$LIMMAX
 10
420.0
 20
297.0
  9
$VIEWCTR
 10
210.0
 20
148.5
  9
$VIEWSIZE
 40
297.0
  9
$CLAYER
  8
0
  9
$LTSCALE
 40
23.1
  9
$CELTYPE
  6
BYLAYER
  9
$DIMSCALE
 40
1.0
  9
$DIMASZ
 40
3.0
  9
$DIMEXO
 40
1.5
  9
$DIMDLI
 40
15.96
  9
$DIMEXE
 40
3.0
  9
$DIMCEN
 40
3.78
  9
$DIMLFAC
 40
1.0
  9
$DIMBLK
  1
_OPEN
  9
$DIMALT
 70
0
  9
$DIMALTF
 40
0.0393700787
  9
$DIMTXT
 40
2.0
  9
$AUNITS
 70
0
  9
$PDMODE
 70
3
  9
$PDSIZE
 40
0.3125
  9
$TILEMODE
 70
1
  0
ENDSEC
  0
SECTION
  2
TABLES
  0
TABLE
  2
LTYPE
 70
6
  0
LTYPE
  2
BYBLOCK
 70
0
  3

 72
65
 73
0
 40
0.0
  0
LTYPE
  2
BYLAYER
 70
0
  3

 72
65
 73
0
 40
0.0
  0
LTYPE
  2
CONTINUOUS
 70
64
  3
Solid line
 72
65
 73
0
 40
0.0
  0
LTYPE
  2
CENTER
 70
64
  3
____ _ ____ _ ____ _ ____ _ ____ _ ____ _ ____
 72
65
 73
4
 40
0.6
 49
0.375
 49
-0.075
 49
0.075
 49
-0.075
  0
LTYPE
  2
HIDDEN
 70
64
  3
- - - - - - - - - - - - - - - - - - - -
 72
65
 73
2
 40
0.2
 49
0.1
 49
-0.1
  0
LTYPE
  2
PHANTOM
 70
64
  3
_____ _ _ _____ _ _ _____ _ _ _____
 72
65
 73
6
 40
0.8
 49
0.45
 49
-0.05
 49
0.1
 49
-0.05
 49
0.1
 49
-0.05
  0
LTYPE
  2
DOT
 70
64
  3
. . . . . . . . . . . . . . . . . . . .
 72
65
 73
2
 40
0.2
 49
0.1
 49
-0.1
  0
LTYPE
  2
DASHED
 70
64
  3
- - - - - - - - - - - - - - - - - - - -
 72
65
 73
2
 40
0.2
 49
0.1
 49
-0.1
  0
ENDTAB
  0
TABLE
  2
LAYER
 70
36
  0
LAYER
  2
0
 70
0
 62
7
  6
CONTINUOUS
  0
LAYER
  2
DEFAULT_1
 70
0
 62
7
  6
CENTER
  0
LAYER
  2
DEFAULT_2
 70
0
 62
8
  6
HIDDEN
  0
LAYER
  2
DEFAULT_3
 70
0
 62
7
  6
PHANTOM
  0
LAYER
  2
5_COURBES
 70
0
 62
7
  6
CONTINUOUS
  0
LAYER
  2
COORDINATE_SYSTEM_LAY
 70
0
 62
7
  6
CONTINUOUS
  0
LAYER
  2
COPY_GEOMETRY_LAY
 70
0
 62
7
  6
CONTINUOUS
  0
LAYER
  2
COURVES_LAY
 70
0
 62
7
  6
CONTINUOUS
  0
LAYER
  2
DTM_LAY
 70
0
 62
7
  6
CONTINUOUS
  0
LAYER
  2
HIDDEN
 70
0
 62
7
  6
CONTINUOUS
  0
LAYER
  2
INTERSECT
 70
0
 62
7
  6
CONTINUOUS
  0
ENDTAB
  0
TABLE
  2
STYLE
 70
1
  0
STYLE
  2
STANDARD
 70
0
 40
0.0
 41
0.8
 50
0.0
 71
0
 42
0.2
  3
txt
  4

  0
STYLE
  2
TEXTSTYLE_1
 70
0
 40
0.0
 41
0.8
 50
0.0
 71
0
 42
0.2
  3
gdt
  4

  0
STYLE
  2
TEXTSTYLE_2
 70
0
 40
0.0
 41
1.0
 50
0.0
 71
0
 42
0.2
  3
txt
  4

  0
STYLE
  2
TEXTSTYLE_3
 70
0
 40
0.0
 41
1.0
 50
0.0
 71
0
 42
0.2
  3
shanno.ttf
  4

  0
STYLE
  2
TEXTSTYLE_4
 70
0
 40
0.0
 41
1.0
 50
0.0
 71
0
 42
0.2
  3
shanno.ttf
  4

  0
STYLE
  2
TEXTSTYLE_5
 70
0
 40
0.0
 41
1.0
 50
0.0
 71
0
 42
0.2
  3
symbol_asme.ttf
  4

  0
STYLE
  2
TEXTSTYLE_6
 70
0
 40
0.0
 41
1.0
 50
0.0
 71
0
 42
0.2
  3
symbol_asme.ttf
  4

  0
STYLE
  2
TEXTSTYLE_7
 70
0
 40
0.0
 41
1.0
 50
0.0
 71
0
 42
0.2
  3
shannob.ttf
  4

  0
ENDTAB
  0
ENDSEC
  0
SECTION
  2
BLOCKS
  0
BLOCK
  8
0
 62
2
  6
CONTINUOUS
  2
REPERE_ORIENTATION_BL1
 70
64
 10
210.0167985833
 20
6.8841149578
  0
LINE
  8
0
 62
7
  6
CONTINUOUS
 10
210.0167985833
 20
6.8841149578
 11
206.0167985833
 21
10.8841149578
  0
LINE
  8
0
 62
7
  6
CONTINUOUS
 10
214.0167985833
 20
10.8841149578
 11
206.0167985833
 21
10.8841149578
  0
LINE
  8
0
 62
7
  6
CONTINUOUS
 10
210.0167985833
 20
6.8841149578
 11
214.0167985833
 21
10.8841149578
  0
LINE
  8
0
 62
7
  6
CONTINUOUS
 10
206.0167985833
 20
10.8841149578
 11
210.0167985833
 21
-0.1158850422
  0
LINE
  8
0
 62
7
  6
CONTINUOUS
 10
210.0167985833
 20
-0.1158850422
 11
214.0167985833
 21
10.8841149578
  0
LINE
  8
0
 62
7
  6
CONTINUOUS
 10
210.0167985833
 20
13.8841149578
 11
210.0167985833
 21
10.8841149578
  0
LINE
  8
0
 62
7
  6
CONTINUOUS
 10
210.0167985833
 20
6.8841149578
 11
210.0167985833
 21
-0.1158850422
  0
LINE
  8
0
 62
7
  6
CONTINUOUS
 10
213.0167985833
 20
9.8841149578
 11
207.0167985833
 21
9.8841149578
  0
SOLID
  8
0
 62
7
  6
CONTINUOUS
 10
206.0167985833
 20
10.8841149578
 11
210.0167985833
 21
6.8841149578
 12
214.0167985833
 22
10.8841149578
 13
214.0167985833
 23
10.8841149578
  0
ENDBLK
  8
0
  6
BYBLOCK
 62
0
  0
BLOCK
  8
0
 62
2
  6
CONTINUOUS
  2
MARGEA3_BL0
 70
64
 10
210.000078
 20
148.5000005
  0
TEXT
  8
0
 62
2
  6
CONTINUOUS
 10
77.000078
 20
5.000001
  7
TEXTSTYLE_2
 40
3.5
  1
G
 41
1.0
 51
0.000018724
 72
0
  0
TEXT
  8
0
 62
2
  6
CONTINUOUS
 10
24.500078
 20
5.000001
  7
TEXTSTYLE_2
 40
3.5
  1
H
 41
1.0
 51
0.000018724
 72
0
  0
TEXT
  8
0
 62
2
  6
CONTINUOUS
 10
182.000078
 20
287.000001
  7
TEXTSTYLE_2
 40
3.5
  1
E
 50
270.0
 41
1.0
 51
0.000018724
 72
0
  0
TEXT
  8
0
 62
2
  6
CONTINUOUS
 10
129.500078
 20
287.000001
  7
TEXTSTYLE_2
 40
3.5
  1
F
 50
270.0
 41
1.0
 51
0.000018724
 72
0
  0
TEXT
  8
0
 62
2
  6
CONTINUOUS
 10
77.000078
 20
287.000001
  7
TEXTSTYLE_2
 40
3.5
  1
G
 50
270.0
 41
1.0
 51
0.000018724
 72
0
  0
TEXT
  8
0
 62
2
  6
CONTINUOUS
 10
24.500078
 20
287.000001
  7
TEXTSTYLE_2
 40
3.5
  1
H
 50
270.0
 41
1.0
 51
0.000018724
 72
0
  0
TEXT
  8
0
 62
2
  6
CONTINUOUS
 10
234.500078
 20
287.000001
  7
TEXTSTYLE_2
 40
3.5
  1
D
 50
270.0
 41
1.0
 51
0.000018724
 72
0
  0
TEXT
  8
0
 62
2
  6
CONTINUOUS
 10
287.000078
 20
287.000001
  7
TEXTSTYLE_2
 40
3.5
  1
C
 50
270.0
 41
1.0
 51
0.000018724
 72
0
  0
TEXT
  8
0
 62
2
  6
CONTINUOUS
 10
339.500078
 20
287.000001
  7
TEXTSTYLE_2
 40
3.5
  1
B
 50
270.0
 41
1.0
 51
0.000018724
 72
0
  0
TEXT
  8
0
 62
2
  6
CONTINUOUS
 10
392.000078
 20
287.000001
  7
TEXTSTYLE_2
 40
3.5
  1
A
 50
270.0
 41
1.0
 51
0.000018724
 72
0
  0
TEXT
  8
0
 62
2
  6
CONTINUOUS
 10
339.500078
 20
5.000001
  7
TEXTSTYLE_2
 40
3.5
  1
B
 41
1.0
 51
0.000018724
 72
0
  0
TEXT
  8
0
 62
2
  6
CONTINUOUS
 10
392.000078
 20
5.000001
  7
TEXTSTYLE_2
 40
3.5
  1
A
 41
1.0
 51
0.000018724
 72
0
  0
TEXT
  8
0
 62
2
  6
CONTINUOUS
 10
406.500078
 20
258.125001
  7
TEXTSTYLE_2
 40
3.5
  1
4
 41
1.0
 51
0.000018724
 72
0
  0
TEXT
  8
0
 62
2
  6
CONTINUOUS
 10
406.500078
 20
183.875001
  7
TEXTSTYLE_2
 40
3.5
  1
3
 41
1.0
 51
0.000018724
 72
0
  0
TEXT
  8
0
 62
2
  6
CONTINUOUS
 10
406.500078
 20
109.625001
  7
TEXTSTYLE_2
 40
3.5
  1
2
 41
1.0
 51
0.000018724
 72
0
  0
TEXT
  8
0
 62
2
  6
CONTINUOUS
 10
406.500078
 20
35.375001
  7
TEXTSTYLE_2
 40
3.5
  1
1
 41
1.0
 51
0.000018724
 72
0
  0
TEXT
  8
0
 62
2
  6
CONTINUOUS
 10
10.000078
 20
38.875001
  7
TEXTSTYLE_2
 40
3.5
  1
1
 50
270.0
 41
1.0
 51
0.000018724
 72
0
  0
TEXT
  8
0
 62
2
  6
CONTINUOUS
 10
10.000078
 20
113.125001
  7
TEXTSTYLE_2
 40
3.5
  1
2
 50
270.0
 41
1.0
 51
0.000018724
 72
0
  0
TEXT
  8
0
 62
2
  6
CONTINUOUS
 10
10.000078
 20
187.375001
  7
TEXTSTYLE_2
 40
3.5
  1
3
 50
270.0
 41
1.0
 51
0.000018724
 72
0
  0
TEXT
  8
0
 62
2
  6
CONTINUOUS
 10
10.000078
 20
261.625001
  7
TEXTSTYLE_2
 40
3.5
  1
4
 50
270.0
 41
1.0
 51
0.000018724
 72
0
  0
LINE
  8
0
 62
7
  6
CONTINUOUS
 10
0.000078
 20
0.0
 11
420.000078
 21
0.0
  0
LINE
  8
0
 62
7
  6
CONTINUOUS
 10
0.000078
 20
0.0
 11
0.000078
 21
297.0
  0
LINE
  8
0
 62
7
  6
CONTINUOUS
 10
10.000078
 20
297.000001
 11
0.000078
 21
287.000001
  0
LINE
  8
0
 62
7
  6
CONTINUOUS
 10
0.000078
 20
287.000001
 11
0.000078
 21
297.000001
  0
LINE
  8
0
 62
7
  6
CONTINUOUS
 10
0.000078
 20
297.000001
 11
10.000078
 21
297.000001
  0
LINE
  8
0
 62
7
  6
CONTINUOUS
 10
410.000078
 20
297.000001
 11
420.000078
 21
287.000001
  0
LINE
  8
0
 62
7
  6
CONTINUOUS
 10
420.000078
 20
287.000001
 11
420.000078
 21
297.000001
  0
LINE
  8
0
 62
7
  6
CONTINUOUS
 10
420.000078
 20
297.000001
 11
410.000078
 21
297.000001
  0
LINE
  8
0
 62
7
  6
CONTINUOUS
 10
410.000078
 20
0.000001
 11
420.000078
 21
0.000001
  0
LINE
  8
0
 62
7
  6
CONTINUOUS
 10
420.000078
 20
0.000001
 11
420.000078
 21
10.000001
  0
LINE
  8
0
 62
7
  6
CONTINUOUS
 10
420.000078
 20
10.000001
 11
410.000078
 21
0.000001
  0
LINE
  8
0
 62
7
  6
CONTINUOUS
 10
0.000078
 20
0.000001
 11
10.000078
 21
0.000001
  0
LINE
  8
0
 62
7
  6
CONTINUOUS
 10
10.000078
 20
0.000001
 11
0.000078
 21
10.000001
  0
LINE
  8
0
 62
7
  6
CONTINUOUS
 10
0.000078
 20
10.000001
 11
0.000078
 21
0.000001
  0
LINE
  8
0
 62
7
  6
CONTINUOUS
 10
10.000078
 20
297.000001
 11
0.000078
 21
287.000001
  0
LINE
  8
0
 62
7
  6
CONTINUOUS
 10
10.000078
 20
0.000001
 11
0.000078
 21
10.000001
  0
LINE
  8
0
 62
7
  6
CONTINUOUS
 10
15.000078
 20
282.000001
 11
15.000078
 21
10.000001
  0
LINE
  8
0
 62
7
  6
CONTINUOUS
 10
52.500078
 20
287.000001
 11
52.500078
 21
282.000001
  0
LINE
  8
0
 62
7
  6
CONTINUOUS
 10
52.500078
 20
5.000001
 11
52.500078
 21
10.000001
  0
LINE
  8
0
 62
7
  6
CONTINUOUS
 10
110.000078
 20
7.000001
 11
310.000078
 21
7.000001
  0
LINE
  8
0
 62
7
  6
CONTINUOUS
 10
15.000078
 20
10.000001
 11
405.000078
 21
10.000001
  0
LINE
  8
0
 62
7
  6
CONTINUOUS
 10
105.000078
 20
287.000001
 11
105.000078
 21
282.000001
  0
LINE
  8
0
 62
7
  6
CONTINUOUS
 10
110.000078
 20
5.000001
 11
110.000078
 21
10.000001
  0
LINE
  8
0
 62
7
  6
CONTINUOUS
 10
120.000078
 20
7.000001
 11
120.000078
 21
10.000001
  0
LINE
  8
0
 62
7
  6
CONTINUOUS
 10
130.000078
 20
7.000001
 11
130.000078
 21
10.000001
  0
LINE
  8
0
 62
7
  6
CONTINUOUS
 10
410.000078
 20
74.250001
 11
405.000078
 21
74.250001
  0
LINE
  8
0
 62
7
  6
CONTINUOUS
 10
10.000078
 20
74.250001
 11
15.000078
 21
74.250001
  0
LINE
  8
0
 62
7
  6
CONTINUOUS
 10
140.000078
 20
7.000001
 11
140.000078
 21
10.000001
  0
LINE
  8
0
 62
7
  6
CONTINUOUS
 10
150.000078
 20
7.000001
 11
150.000078
 21
10.000001
  0
LINE
  8
0
 62
7
  6
CONTINUOUS
 10
157.500078
 20
287.000001
 11
157.500078
 21
282.000001
  0
LINE
  8
0
 62
7
  6
CONTINUOUS
 10
160.000078
 20
5.000001
 11
160.000078
 21
10.000001
  0
LINE
  8
0
 62
7
  6
CONTINUOUS
 10
170.000078
 20
7.000001
 11
170.000078
 21
10.000001
  0
LINE
  8
0
 62
7
  6
CONTINUOUS
 10
180.000078
 20
7.000001
 11
180.000078
 21
10.000001
  0
LINE
  8
0
 62
7
  6
CONTINUOUS
 10
190.000078
 20
7.000001
 11
190.000078
 21
10.000001
  0
LINE
  8
0
 62
7
  6
CONTINUOUS
 10
200.000078
 20
7.000001
 11
200.000078
 21
10.000001
  0
LINE
  8
0
 62
7
  6
CONTINUOUS
 10
210.000078
 20
297.000001
 11
210.000078
 21
282.000001
  0
LINE
  8
0
 62
7
  6
CONTINUOUS
 10
420.000078
 20
148.500001
 11
405.000078
 21
148.500001
  0
LINE
  8
0
 62
7
  6
CONTINUOUS
 10
230.000078
 20
7.000001
 11
230.000078
 21
10.000001
  0
LINE
  8
0
 62
7
  6
CONTINUOUS
 10
240.000078
 20
7.000001
 11
240.000078
 21
10.000001
  0
LINE
  8
0
 62
7
  6
CONTINUOUS
 10
250.000078
 20
7.000001
 11
250.000078
 21
10.000001
  0
LINE
  8
0
 62
7
  6
CONTINUOUS
 10
260.000078
 20
5.000001
 11
260.000078
 21
10.000001
  0
LINE
  8
0
 62
7
  6
CONTINUOUS
 10
262.500078
 20
287.000001
 11
262.500078
 21
282.000001
  0
LINE
  8
0
 62
7
  6
CONTINUOUS
 10
270.000078
 20
7.000001
 11
270.000078
 21
10.000001
  0
LINE
  8
0
 62
7
  6
CONTINUOUS
 10
280.000078
 20
7.000001
 11
280.000078
 21
10.000001
  0
LINE
  8
0
 62
7
  6
CONTINUOUS
 10
410.000078
 20
222.750001
 11
405.000078
 21
222.750001
  0
LINE
  8
0
 62
7
  6
CONTINUOUS
 10
10.000078
 20
222.750001
 11
15.000078
 21
222.750001
  0
LINE
  8
0
 62
7
  6
CONTINUOUS
 10
290.000078
 20
7.000001
 11
290.000078
 21
10.000001
  0
LINE
  8
0
 62
7
  6
CONTINUOUS
 10
300.000078
 20
7.000001
 11
300.000078
 21
10.000001
  0
LINE
  8
0
 62
7
  6
CONTINUOUS
 10
310.000078
 20
5.000001
 11
310.000078
 21
10.000001
  0
LINE
  8
0
 62
7
  6
CONTINUOUS
 10
315.000078
 20
287.000001
 11
315.000078
 21
282.000001
  0
LINE
  8
0
 62
7
  6
CONTINUOUS
 10
405.000078
 20
282.000001
 11
15.000078
 21
282.000001
  0
LINE
  8
0
 62
7
  6
CONTINUOUS
 10
0.000078
 20
296.999914
 11
420.0
 21
296.999914
  0
LINE
  8
0
 62
7
  6
CONTINUOUS
 10
420.000078
 20
297.000001
 11
0.000078
 21
297.000001
  0
LINE
  8
0
 62
7
  6
CONTINUOUS
 10
367.500078
 20
287.000001
 11
367.500078
 21
282.000001
  0
LINE
  8
0
 62
7
  6
CONTINUOUS
 10
367.500078
 20
5.000001
 11
367.500078
 21
10.000001
  0
LINE
  8
0
 62
7
  6
CONTINUOUS
 10
405.000078
 20
10.000001
 11
405.000078
 21
282.000001
  0
LINE
  8
0
 62
7
  6
CONTINUOUS
 10
420.0
 20
0.0
 11
420.0
 21
296.999914
  0
LINE
  8
0
 62
7
  6
CONTINUOUS
 10
420.000078
 20
0.000001
 11
420.000078
 21
297.000001
  0
LINE
  8
0
 62
7
  6
CONTINUOUS
 10
410.000078
 20
297.000001
 11
420.000078
 21
287.000001
  0
SOLID
  8
0
 62
7
  6
CONTINUOUS
 10
10.000078
 20
297.000001
 11
0.000078
 21
287.000001
 12
0.000078
 22
297.000001
 13
0.000078
 23
297.000001
  0
SOLID
  8
0
 62
7
  6
CONTINUOUS
 10
410.000078
 20
297.000001
 11
420.000078
 21
287.000001
 12
420.000078
 22
297.000001
 13
420.000078
 23
297.000001
  0
SOLID
  8
0
 62
7
  6
CONTINUOUS
 10
0.000078
 20
0.000001
 11
10.000078
 21
0.000001
 12
0.000078
 22
10.000001
 13
0.000078
 23
10.000001
  0
LINE
  8
0
 62
7
  6
CONTINUOUS
 10
0.000078
 20
148.500001
 11
15.000078
 21
148.500001
  0
LINE
  8
0
 62
7
  6
CONTINUOUS
 10
220.000078
 20
7.000001
 11
220.000078
 21
10.000001
  0
LINE
  8
0
 62
7
  6
CONTINUOUS
 10
420.0
 20
10.0
 11
410.0
 21
0.0
  0
LINE
  8
0
 62
7
  6
CONTINUOUS
 10
410.0
 20
0.0
 11
420.0
 21
0.0
  0
LINE
  8
0
 62
7
  6
CONTINUOUS
 10
420.0
 20
0.0
 11
420.0
 21
10.0
  0
LINE
  8
0
 62
7
  6
CONTINUOUS
 10
420.0
 20
10.0
 11
410.0
 21
0.0
  0
SOLID
  8
0
 62
7
  6
CONTINUOUS
 10
420.0
 20
10.0
 11
410.0
 21
0.0
 12
420.0
 22
0.0
 13
420.0
 23
0.0
  0
ENDBLK
  8
0
  6
BYBLOCK
 62
0
  0
BLOCK
  8
0
  2
_OPEN
 70
64
 10
0.0
 20
0.0
  0
LINE
  8
0
  6
BYBLOCK
 62
0
 10
0.0
 20
0.0
 11
-1.0
 21
0.25
  0
LINE
  8
0
  6
BYBLOCK
 62
0
 10
-1.0
 20
-0.25
 11
0.0
 21
0.0
  0
LINE
  8
0
  6
BYBLOCK
 62
0
 10
-1.0
 20
0.0
 11
0.0
 21
0.0
  0
ENDBLK
  8
0
  6
BYBLOCK
 62
0
  0
BLOCK
  8
0
 62
2
  6
CONTINUOUS
  2
*D0
 70
65
 10
0.0
 20
0.0
  0
TEXT
  8
0
 62
2
  6
CONTINUOUS
 10
142.1435245203
 20
277.6254807919
  7
STANDARD
 40
2.0
  1
250
 41
0.8
 72
1
 11
144.5435245203
 21
277.6254807919
  0
LINE
  8
0
 62
2
  6
CONTINUOUS
 10
32.1768135689
 20
270.3002281636
 11
32.1768135689
 21
280.1254807919
  0
LINE
  8
0
 62
2
  6
CONTINUOUS
 10
282.1768135689
 20
270.3002281636
 11
282.1768135689
 21
280.1254807919
  0
LINE
  8
0
 62
2
  6
CONTINUOUS
 10
32.1768135689
 20
277.1254807919
 11
157.1768135689
 21
277.1254807919
  0
LINE
  8
0
 62
2
  6
CONTINUOUS
 10
282.1768135689
 20
277.1254807919
 11
157.1768135689
 21
277.1254807919
  0
INSERT
  8
0
 62
2
  6
CONTINUOUS
  2
_OPEN
 10
32.1768135689
 20
277.1254807919
 41
3.0
 42
3.0
 43
3.0
 50
180.0
  0
INSERT
  8
0
 62
2
  6
CONTINUOUS
  2
_OPEN
 10
282.1768135689
 20
277.1254807919
 41
3.0
 42
3.0
 43
3.0
  0
ENDBLK
  8
0
  6
BYBLOCK
 62
0
  0
BLOCK
  8
0
 62
2
  6
CONTINUOUS
  2
*D1
 70
65
 10
0.0
 20
0.0
  0
TEXT
  8
0
 62
2
  6
CONTINUOUS
 10
24.3341415416
 20
141.9147786642
  7
STANDARD
 40
2.0
  1
250
 50
90.0
 41
0.8
 72
1
 11
24.3341415416
 21
144.3147786642
  0
LINE
  8
0
 62
2
  6
CONTINUOUS
 10
30.6768135689
 20
268.8002281636
 11
21.8341415416
 21
268.8002281636
  0
LINE
  8
0
 62
2
  6
CONTINUOUS
 10
30.6768135689
 20
18.8002281636
 11
21.8341415416
 21
18.8002281636
  0
LINE
  8
0
 62
2
  6
CONTINUOUS
 10
24.8341415416
 20
268.8002281636
 11
24.8341415416
 21
143.8002281636
  0
LINE
  8
0
 62
2
  6
CONTINUOUS
 10
24.8341415416
 20
18.8002281636
 11
24.8341415416
 21
143.8002281636
  0
INSERT
  8
0
 62
2
  6
CONTINUOUS
  2
_OPEN
 10
24.8341415416
 20
268.8002281636
 41
3.0
 42
3.0
 43
3.0
 50
90.0
  0
INSERT
  8
0
 62
2
  6
CONTINUOUS
  2
_OPEN
 10
24.8341415416
 20
18.8002281636
 41
3.0
 42
3.0
 43
3.0
 50
270.0
  0
ENDBLK
  8
0
  6
BYBLOCK
 62
0
  0
BLOCK
  8
0
 62
2
  6
CONTINUOUS
  2
*D2
 70
65
 10
0.0
 20
0.0
  0
TEXT
  8
0
 62
2
  6
CONTINUOUS
 10
260.9337438953
 20
13.187583478
  7
STANDARD
 40
2.0
  1
40
 41
0.8
 72
1
 11
262.5337438953
 21
13.187583478
  0
LINE
  8
0
 62
2
  6
CONTINUOUS
 10
242.1768135689
 20
17.3002281636
 11
242.1768135689
 21
9.687583478
  0
LINE
  8
0
 62
2
  6
CONTINUOUS
 10
282.1768135689
 20
17.3002281636
 11
282.1768135689
 21
9.687583478
  0
LINE
  8
0
 62
2
  6
CONTINUOUS
 10
242.1768135689
 20
12.687583478
 11
262.1768135689
 21
12.687583478
  0
LINE
  8
0
 62
2
  6
CONTINUOUS
 10
282.1768135689
 20
12.687583478
 11
262.1768135689
 21
12.687583478
  0
INSERT
  8
0
 62
2
  6
CONTINUOUS
  2
_OPEN
 10
242.1768135689
 20
12.687583478
 41
3.0
 42
3.0
 43
3.0
 50
180.0
  0
INSERT
  8
0
 62
2
  6
CONTINUOUS
  2
_OPEN
 10
282.1768135689
 20
12.687583478
 41
3.0
 42
3.0
 43
3.0
  0
ENDBLK
  8
0
  6
BYBLOCK
 62
0
  0
BLOCK
  8
0
 62
2
  6
CONTINUOUS
  2
*D3
 70
65
 10
0.0
 20
0.0
  0
TEXT
  8
0
 62
2
  6
CONTINUOUS
 10
289.334673257
 20
47.9006013504
  7
STANDARD
 40
2.0
  1
60
 50
90.0
 41
0.8
 72
1
 11
289.334673257
 21
49.5006013504
  0
LINE
  8
0
 62
2
  6
CONTINUOUS
 10
283.6768135689
 20
18.8002281636
 11
292.834673257
 21
18.8002281636
  0
LINE
  8
0
 62
2
  6
CONTINUOUS
 10
283.6768135689
 20
78.8002281636
 11
292.834673257
 21
78.8002281636
  0
LINE
  8
0
 62
2
  6
CONTINUOUS
 10
289.834673257
 20
18.8002281636
 11
289.834673257
 21
48.8002281636
  0
LINE
  8
0
 62
2
  6
CONTINUOUS
 10
289.834673257
 20
78.8002281636
 11
289.834673257
 21
48.8002281636
  0
INSERT
  8
0
 62
2
  6
CONTINUOUS
  2
_OPEN
 10
289.834673257
 20
18.8002281636
 41
3.0
 42
3.0
 43
3.0
 50
270.0
  0
INSERT
  8
0
 62
2
  6
CONTINUOUS
  2
_OPEN
 10
289.834673257
 20
78.8002281636
 41
3.0
 42
3.0
 43
3.0
 50
90.0
  0
ENDBLK
  8
0
  6
BYBLOCK
 62
0
  0
BLOCK
  8
0
 62
2
  6
CONTINUOUS
  2
*D4
 70
65
 10
0.0
 20
0.0
  0
TEXT
  8
0
 62
2
  6
CONTINUOUS
 10
250.6247734532
 20
272.7722755824
  7
STANDARD
 40
2.0
  1
60
 41
0.8
 72
1
 11
252.2247734532
 21
272.7722755824
  0
LINE
  8
0
 62
2
  6
CONTINUOUS
 10
222.1768135689
 20
270.3002281636
 11
222.1768135689
 21
275.2722755824
  0
LINE
  8
0
 62
2
  6
CONTINUOUS
 10
282.1768135689
 20
270.3002281636
 11
282.1768135689
 21
275.2722755824
  0
LINE
  8
0
 62
2
  6
CONTINUOUS
 10
222.1768135689
 20
272.2722755824
 11
252.1768135689
 21
272.2722755824
  0
LINE
  8
0
 62
2
  6
CONTINUOUS
 10
282.1768135689
 20
272.2722755824
 11
252.1768135689
 21
272.2722755824
  0
INSERT
  8
0
 62
2
  6
CONTINUOUS
  2
_OPEN
 10
222.1768135689
 20
272.2722755824
 41
3.0
 42
3.0
 43
3.0
 50
180.0
  0
INSERT
  8
0
 62
2
  6
CONTINUOUS
  2
_OPEN
 10
282.1768135689
 20
272.2722755824
 41
3.0
 42
3.0
 43
3.0
  0
ENDBLK
  8
0
  6
BYBLOCK
 62
0
  0
BLOCK
  8
0
 62
2
  6
CONTINUOUS
  2
*D5
 70
65
 10
0.0
 20
0.0
  0
TEXT
  8
0
 62
2
  6
CONTINUOUS
 10
293.571937017
 20
220.5809750505
  7
STANDARD
 40
2.0
  1
125
 50
90.0
 41
0.8
 72
1
 11
293.571937017
 21
222.9809750505
  0
LINE
  8
0
 62
2
  6
CONTINUOUS
 10
223.6768135689
 20
268.8002281636
 11
297.071937017
 21
268.8002281636
  0
LINE
  8
0
 62
2
  6
CONTINUOUS
 10
223.6768135689
 20
143.8002281636
 11
297.071937017
 21
143.8002281636
  0
LINE
  8
0
 62
2
  6
CONTINUOUS
 10
294.071937017
 20
268.8002281636
 11
294.071937017
 21
206.3002281636
  0
LINE
  8
0
 62
2
  6
CONTINUOUS
 10
294.071937017
 20
143.8002281636
 11
294.071937017
 21
206.3002281636
  0
INSERT
  8
0
 62
2
  6
CONTINUOUS
  2
_OPEN
 10
294.071937017
 20
268.8002281636
 41
3.0
 42
3.0
 43
3.0
 50
90.0
  0
INSERT
  8
0
 62
2
  6
CONTINUOUS
  2
_OPEN
 10
294.071937017
 20
143.8002281636
 41
3.0
 42
3.0
 43
3.0
 50
270.0
  0
ENDBLK
  8
0
  6
BYBLOCK
 62
0
  0
ENDSEC
  0
SECTION
  2
ENTITIES
  0
INSERT
  8
0
 62
2
  6
CONTINUOUS
  2
MARGEA3_BL0
 10
210.000078
 20
148.5000005
  0
INSERT
  8
0
 62
2
  6
CONTINUOUS
  2
REPERE_ORIENTATION_BL1
 10
210.0167985833
 20
6.8841149578
  0
DIMENSION
  8
0
 62
2
  6
CONTINUOUS
  2
*D0
 10
282.1768135689
 20
277.1254807919
 11
144.5435229492
 21
277.1254807919
 70
128
 13
32.1768135689
 23
268.8002281636
 14
282.1768135689
 24
268.8002281636
  0
DIMENSION
  8
0
 62
2
  6
CONTINUOUS
  2
*D1
 10
24.8341415416
 20
18.8002281636
 11
24.8341415416
 21
144.3147777095
 70
128
 13
32.1768135689
 23
268.8002281636
 14
32.1768135689
 24
18.8002281636
 50
270.0
  0
DIMENSION
  8
0
 62
2
  6
CONTINUOUS
  2
*D2
 10
282.1768135689
 20
12.687583478
 11
262.5337481689
 21
12.687583478
 70
128
 13
242.1768135689
 23
18.8002281636
 14
282.1768135689
 24
18.8002281636
  0
DIMENSION
  8
0
 62
2
  6
CONTINUOUS
  2
*D3
 10
289.834673257
 20
78.8002281636
 11
289.834673257
 21
49.5005997242
 70
128
 13
282.1768135689
 23
18.8002281636
 14
282.1768135689
 24
78.8002281636
 50
90.0
  0
DIMENSION
  8
0
 62
2
  6
CONTINUOUS
  2
*D4
 10
282.1768135689
 20
272.2722755824
 11
252.2247784424
 21
272.2722755824
 70
128
 13
222.1768135689
 23
276.7722755824
 14
282.1768135689
 24
276.7722755824
  0
DIMENSION
  8
0
 62
2
  6
CONTINUOUS
  2
*D5
 10
294.071937017
 20
143.8002281636
 11
294.071937017
 21
223.2309697962
 70
128
 13
222.1768135689
 23
268.8002281636
 14
222.1768135689
 24
143.8002281636
 50
270.0
  0
LINE
  8
0
 62
2
  6
CONTINUOUS
 10
294.9213290416
 20
61.8782942892
 11
404.9013290416
 21
61.8782942892
  0
LINE
  8
0
 62
2
  6
CONTINUOUS
 10
294.9213290416
 20
61.8782942892
 11
294.9213290416
 21
9.8782942892
  0
LINE
  8
0
 62
2
  6
CONTINUOUS
 10
294.9213290416
 20
51.8782942892
 11
404.9013290416
 21
51.8782942892
  0
LINE
  8
0
 62
2
  6
CONTINUOUS
 10
294.9213290416
 20
39.8782942892
 11
404.9013290416
 21
39.8782942892
  0
LINE
  8
0
 62
2
  6
CONTINUOUS
 10
294.9213290416
 20
19.8782942892
 11
404.9013290416
 21
19.8782942892
  0
LINE
  8
0
 62
2
  6
CONTINUOUS
 10
294.9213290416
 20
9.8782942892
 11
404.9013290416
 21
9.8782942892
  0
LINE
  8
0
 62
2
  6
CONTINUOUS
 10
318.9213290416
 20
61.8782942892
 11
318.9213290416
 21
39.8782942892
  0
LINE
  8
0
 62
2
  6
CONTINUOUS
 10
343.9213290416
 20
61.8782942892
 11
343.9213290416
 21
39.8782942892
  0
LINE
  8
0
 62
2
  6
CONTINUOUS
 10
363.6013290416
 20
61.8782942892
 11
363.6013290416
 21
39.8782942892
  0
LINE
  8
0
 62
2
  6
CONTINUOUS
 10
404.9013290416
 20
61.8782942892
 11
404.9013290416
 21
9.8782942892
  0
TEXT
  8
0
 62
2
  6
CONTINUOUS
 10
303.1667164955
 20
57.5032942892
  7
TEXTSTYLE_3
 40
2.5
  1
Scale
 41
1.0
 72
1
 11
306.9213290416
 21
57.5032942892
  0
TEXT
  8
0
 62
2
  6
CONTINUOUS
 10
302.4425467538
 20
53.7532942892
  7
TEXTSTYLE_3
 40
2.5
  1
1.000
 41
1.0
 72
1
 11
306.9213290416
 21
53.7532942892
  0
TEXT
  8
0
 62
2
  6
CONTINUOUS
 10
326.1307386357
 20
57.5032942892
  7
TEXTSTYLE_4
 40
2.5
  1
Format
 41
1.0
 72
1
 11
331.4213290416
 21
57.5032942892
  0
TEXT
  8
0
 62
2
  6
CONTINUOUS
 10
329.341070739
 20
53.7532942892
  7
TEXTSTYLE_4
 40
2.5
  1
A3
 41
1.0
 72
1
 11
331.4213290416
 21
53.7532942892
  0
TEXT
  8
0
 62
2
  6
CONTINUOUS
 10
349.5961998903
 20
57.5032942892
  7
TEXTSTYLE_3
 40
2.5
  1
Index
 41
1.0
 72
1
 11
353.7613290416
 21
57.5032942892
  0
TEXT
  8
0
 62
2
  6
CONTINUOUS
 10
353.2493364217
 20
53.7532942892
  7
TEXTSTYLE_3
 40
2.5
  1
 
 41
1.0
 72
1
 11
353.7613290416
 21
53.7532942892
  0
TEXT
  8
0
 62
2
  6
CONTINUOUS
 10
370.8731002593
 20
57.6282942892
  7
TEXTSTYLE_3
 40
3.0
  1
Gen. Tolerance
 41
1.0
 72
1
 11
384.2513290416
 21
57.6282942892
  0
TEXT
  8
0
 62
2
  6
CONTINUOUS
 10
372.2236537648
 20
53.1282942892
  7
TEXTSTYLE_3
 40
3.0
  1
ISO 2768-1m
 41
1.0
 72
1
 11
384.2513290416
 21
53.1282942892
  0
TEXT
  8
0
 62
2
  6
CONTINUOUS
 10
300.7917114267
 20
46.5032942892
  7
TEXTSTYLE_4
 40
2.5
  1
N
 41
1.0
 72
1
 11
302.1062870725
 21
46.5032942892
  0
TEXT
  8
0
 62
2
  6
CONTINUOUS
 10
303.4208627183
 20
46.5032942892
  7
TEXTSTYLE_5
 40
2.5
  1
°
 41
1.0
 72
1
 11
304.1076759051
 21
46.5032942892
  0
TEXT
  8
0
 62
2
  6
CONTINUOUS
 10
304.7944890919
 20
46.5032942892
  7
TEXTSTYLE_4
 40
2.5
  1
 Outil
 41
1.0
 72
1
 11
308.9227178742
 21
46.5032942892
  0
TEXT
  8
0
 62
2
  6
CONTINUOUS
 10
306.4093364217
 20
42.7532942892
  7
TEXTSTYLE_4
 40
2.5
  1
 
 41
1.0
 72
1
 11
306.9213290416
 21
42.7532942892
  0
TEXT
  8
0
 62
2
  6
CONTINUOUS
 10
325.706840578
 20
46.5032942892
  7
TEXTSTYLE_3
 40
2.5
  1
N
 41
1.0
 72
1
 11
327.0214162238
 21
46.5032942892
  0
TEXT
  8
0
 62
2
  6
CONTINUOUS
 10
328.3359918695
 20
46.5032942892
  7
TEXTSTYLE_6
 40
2.5
  1
°
 41
1.0
 72
1
 11
329.0228050564
 21
46.5032942892
  0
TEXT
  8
0
 62
2
  6
CONTINUOUS
 10
329.7096182432
 20
46.5032942892
  7
TEXTSTYLE_3
 40
2.5
  1
 Plan
 41
1.0
 72
1
 11
333.4227178742
 21
46.5032942892
  0
TEXT
  8
0
 62
2
  6
CONTINUOUS
 10
329.9176390047
 20
42.7532942892
  7
TEXTSTYLE_3
 40
2.5
  1
1
 41
1.0
 72
1
 11
330.9093364217
 21
42.7532942892
  0
TEXT
  8
0
 62
2
  6
CONTINUOUS
 10
331.9010338387
 20
42.7532942892
  7
TEXTSTYLE_3
 40
2.5
  1
 
 41
1.0
 72
1
 11
332.4130264586
 21
42.7532942892
  0
TEXT
  8
0
 62
2
  6
CONTINUOUS
 10
347.5436168645
 20
46.5032942892
  7
TEXTSTYLE_3
 40
2.5
  1
Material
 41
1.0
 72
1
 11
353.7613290416
 21
46.5032942892
  0
TEXT
  8
0
 62
2
  6
CONTINUOUS
 10
353.2493364217
 20
42.7532942892
  7
TEXTSTYLE_3
 40
2.5
  1
 
 41
1.0
 72
1
 11
353.7613290416
 21
42.7532942892
  0
TEXT
  8
0
 62
2
  6
CONTINUOUS
 10
369.3574176025
 20
48.3782942892
  7
TEXTSTYLE_3
 40
2.5
  1
Treatment / Coating
 41
1.0
 72
1
 11
384.2513290416
 21
48.3782942892
  0
TEXT
  8
0
 62
2
  6
CONTINUOUS
 10
383.2273438017
 20
44.6282942892
  7
TEXTSTYLE_3
 40
2.5
  1
- 
 41
1.0
 72
1
 11
384.2513290416
 21
44.6282942892
  0
TEXT
  8
0
 62
2
  6
CONTINUOUS
 10
382.7153511818
 20
40.8782942892
  7
TEXTSTYLE_3
 40
2.5
  1
-  
 41
1.0
 72
1
 11
384.2513290416
 21
40.8782942892
  0
TEXT
  8
0
 62
2
  6
CONTINUOUS
 10
296.2013290416
 20
35.0782942892
  7
TEXTSTYLE_3
 40
3.2
  1
Model name:
 41
1.0
 72
0
  0
TEXT
  8
0
 62
2
  6
CONTINUOUS
 10
335.1235061634
 20
22.3782942892
  7
TEXTSTYLE_7
 40
5.0
  1
PRT0001
 41
1.0
 72
1
 11
349.9113290416
 21
22.3782942892
  0
TEXT
  8
0
 62
2
  6
CONTINUOUS
 10
340.0181637457
 20
88.4437825638
  7
STANDARD
 40
4.0
  1
5x 125x60x25mm
 41
0.8
 72
0
  0
TEXT
  8
0
 62
2
  6
CONTINUOUS
 10
340.0181637457
 20
82.4437825638
  7
STANDARD
 40
4.0
  1
6x 60x40x25mm
 41
0.8
 72
0
  0
LINE
  8
0
 62
7
  6
CONTINUOUS
 10
0.0
 20
0.0
 11
0.0
 21
297.0
  0
LINE
  8
0
 62
7
  6
CONTINUOUS
 10
0.0
 20
0.0
 11
420.0
 21
0.0
  0
LINE
  8
0
 62
7
  6
CONTINUOUS
 10
0.0
 20
297.0
 11
420.0
 21
297.0
  0
LINE
  8
0
 62
7
  6
CONTINUOUS
 10
420.0
 20
0.0
 11
420.0
 21
297.0
  0
LINE
  8
0
 62
7
  6
CONTINUOUS
 10
32.1768135689
 20
143.8002281636
 11
32.1768135689
 21
18.8002281636
  0
LINE
  8
5_COURBES
 62
4
  6
CONTINUOUS
 10
32.1768135689
 20
268.8002281636
 11
32.1768135689
 21
18.8002281636
  0
LINE
  8
0
 62
7
  6
CONTINUOUS
 10
32.1768135689
 20
18.8002281636
 11
113.1768135689
 21
18.8002281636
  0
LINE
  8
0
 62
7
  6
CONTINUOUS
 10
153.1768135689
 20
18.8002281636
 11
156.1768135689
 21
18.8002281636
  0
LINE
  8
0
 62
7
  6
CONTINUOUS
 10
196.1768135689
 20
18.8002281636
 11
199.1768135689
 21
18.8002281636
  0
LINE
  8
0
 62
7
  6
CONTINUOUS
 10
239.1768135689
 20
18.8002281636
 11
242.1768135689
 21
18.8002281636
  0
LINE
  8
5_COURBES
 62
4
  6
CONTINUOUS
 10
32.1768135689
 20
18.8002281636
 11
282.1768135689
 21
18.8002281636
  0
LINE
  8
0
 62
7
  6
CONTINUOUS
 10
51.1768135689
 20
140.8002281636
 11
51.1768135689
 21
100.8002281636
  0
LINE
  8
0
 62
7
  6
CONTINUOUS
 10
92.1768135689
 20
268.8002281636
 11
92.1768135689
 21
143.8002281636
  0
LINE
  8
0
 62
7
  6
CONTINUOUS
 10
95.1768135689
 20
268.8002281636
 11
95.1768135689
 21
143.8002281636
  0
LINE
  8
0
 62
7
  6
CONTINUOUS
 10
282.1768135689
 20
78.8002281636
 11
242.1768135689
 21
78.8002281636
  0
LINE
  8
0
 62
7
  6
CONTINUOUS
 10
239.1768135689
 20
78.8002281636
 11
199.1768135689
 21
78.8002281636
  0
LINE
  8
0
 62
7
  6
CONTINUOUS
 10
196.1768135689
 20
78.8002281636
 11
156.1768135689
 21
78.8002281636
  0
LINE
  8
0
 62
7
  6
CONTINUOUS
 10
153.1768135689
 20
78.8002281636
 11
113.1768135689
 21
78.8002281636
  0
LINE
  8
0
 62
7
  6
CONTINUOUS
 10
282.1768135689
 20
80.8002281636
 11
157.1768135689
 21
80.8002281636
  0
LINE
  8
0
 62
7
  6
CONTINUOUS
 10
113.1768135689
 20
80.8002281636
 11
153.1768135689
 21
80.8002281636
  0
LINE
  8
0
 62
7
  6
CONTINUOUS
 10
111.1768135689
 20
100.8002281636
 11
111.1768135689
 21
140.8002281636
  0
LINE
  8
0
 62
7
  6
CONTINUOUS
 10
113.1768135689
 20
140.8002281636
 11
113.1768135689
 21
80.8002281636
  0
LINE
  8
0
 62
7
  6
CONTINUOUS
 10
113.1768135689
 20
18.8002281636
 11
113.1768135689
 21
78.8002281636
  0
LINE
  8
0
 62
7
  6
CONTINUOUS
 10
51.1768135689
 20
100.8002281636
 11
111.1768135689
 21
100.8002281636
  0
LINE
  8
0
 62
7
  6
CONTINUOUS
 10
153.1768135689
 20
18.8002281636
 11
153.1768135689
 21
78.8002281636
  0
LINE
  8
0
 62
7
  6
CONTINUOUS
 10
153.1768135689
 20
80.8002281636
 11
153.1768135689
 21
140.8002281636
  0
LINE
  8
0
 62
7
  6
CONTINUOUS
 10
155.1768135689
 20
268.8002281636
 11
155.1768135689
 21
143.8002281636
  0
LINE
  8
0
 62
7
  6
CONTINUOUS
 10
156.1768135689
 20
18.8002281636
 11
156.1768135689
 21
78.8002281636
  0
LINE
  8
0
 62
7
  6
CONTINUOUS
 10
157.1768135689
 20
140.8002281636
 11
157.1768135689
 21
80.8002281636
  0
LINE
  8
0
 62
7
  6
CONTINUOUS
 10
158.1768135689
 20
268.8002281636
 11
158.1768135689
 21
143.8002281636
  0
LINE
  8
0
 62
7
  6
CONTINUOUS
 10
282.1768135689
 20
140.8002281636
 11
157.1768135689
 21
140.8002281636
  0
LINE
  8
0
 62
7
  6
CONTINUOUS
 10
153.1768135689
 20
140.8002281636
 11
113.1768135689
 21
140.8002281636
  0
LINE
  8
0
 62
7
  6
CONTINUOUS
 10
111.1768135689
 20
140.8002281636
 11
51.1768135689
 21
140.8002281636
  0
LINE
  8
0
 62
7
  6
CONTINUOUS
 10
282.1768135689
 20
143.8002281636
 11
222.1768135689
 21
143.8002281636
  0
LINE
  8
0
 62
7
  6
CONTINUOUS
 10
32.1768135689
 20
143.8002281636
 11
92.1768135689
 21
143.8002281636
  0
LINE
  8
0
 62
7
  6
CONTINUOUS
 10
95.1768135689
 20
143.8002281636
 11
155.1768135689
 21
143.8002281636
  0
LINE
  8
0
 62
7
  6
CONTINUOUS
 10
158.1768135689
 20
143.8002281636
 11
218.1768135689
 21
143.8002281636
  0
LINE
  8
0
 62
7
  6
CONTINUOUS
 10
196.1768135689
 20
18.8002281636
 11
196.1768135689
 21
78.8002281636
  0
LINE
  8
0
 62
7
  6
CONTINUOUS
 10
199.1768135689
 20
18.8002281636
 11
199.1768135689
 21
78.8002281636
  0
LINE
  8
0
 62
7
  6
CONTINUOUS
 10
218.1768135689
 20
268.8002281636
 11
218.1768135689
 21
143.8002281636
  0
LINE
  8
0
 62
7
  6
CONTINUOUS
 10
222.1768135689
 20
268.8002281636
 11
222.1768135689
 21
143.8002281636
  0
LINE
  8
0
 62
7
  6
CONTINUOUS
 10
239.1768135689
 20
18.8002281636
 11
239.1768135689
 21
78.8002281636
  0
LINE
  8
0
 62
7
  6
CONTINUOUS
 10
242.1768135689
 20
18.8002281636
 11
242.1768135689
 21
78.8002281636
  0
LINE
  8
0
 62
7
  6
CONTINUOUS
 10
282.1768135689
 20
78.8002281636
 11
282.1768135689
 21
80.8002281636
  0
LINE
  8
0
 62
7
  6
CONTINUOUS
 10
282.1768135689
 20
140.8002281636
 11
282.1768135689
 21
143.8002281636
  0
LINE
  8
5_COURBES
 62
4
  6
CONTINUOUS
 10
282.1768135689
 20
18.8002281636
 11
282.1768135689
 21
268.8002281636
  0
LINE
  8
0
 62
7
  6
CONTINUOUS
 10
222.1768135689
 20
268.8002281636
 11
218.1768135689
 21
268.8002281636
  0
LINE
  8
0
 62
7
  6
CONTINUOUS
 10
158.1768135689
 20
268.8002281636
 11
155.1768135689
 21
268.8002281636
  0
LINE
  8
0
 62
7
  6
CONTINUOUS
 10
95.1768135689
 20
268.8002281636
 11
92.1768135689
 21
268.8002281636
  0
LINE
  8
5_COURBES
 62
4
  6
CONTINUOUS
 10
282.1768135689
 20
268.8002281636
 11
32.1768135689
 21
268.8002281636
  0
ENDSEC
  0
EOF
